Поиск

(avant-garde-jazz/ modern creative/ latin-jazz) Andre Marques e a vintena brasileira - De baque as avessas - 2007, FLAC (image+.cue), lossless

Треклист:
Andre Marques e a vintena brasileira - De baque as avessas
Жанр: avant-garde-jazz/ modern creative/ latin-jazz
Год выпуска диска: 2007
Производитель диска: Bugre Records/Brasil
Аудио кодек: FLAC
Тип рипа: image+.cue
Битрейт аудио: lossless
Треклист:
1. Meia-volta volver
2. Ao infinito
3. Seu ze - capitulo 1 - "um recado para seu ze"
4. Seu ze - capitilo 2 - "o arranca-rabo de seu ze e dona epifania"
5. Seu ze - capitulo 3 - "o final feliz"
6. Terra vermelha
7. De baque as avessas
8. A caminho do baile
9. O boi de tatui
10. maxixada
11. Coracao distante
12. Mais um
Доп. информация:
Alexander de Souza - flauta e flautim
Ana Malta - voz e percussao
Bruno Cavaicanti - guitarra
Evandro Marcolino - bandolim e violao
Fulvio Moraes - bateria e percussao
Guiherme Fanti - guitarra e cavaquinho
Joao Paulo Barbosa - sax alto e flauta
Joao Paulo Gancalves - guitarra e violao
Marcel Bottaro - baixo e percussao
Marcelo Burge - guiterra e viola caipira
Marcelo Pereira - sax soprano e flauta
Marcio Correa - bateria e percussao
Marcos Crisosimo - trumpete
Michelle Ortega - violino e rabeca
Paulinho Leme - piano, sanfona e percussao
Rayrai Galvao - gaita
Richard Ferrarini = sax tenor, flauta e clarinete
Samira Zaber - violino
Samuel Gustinelli - piano, escaleta e percussao
Sergio Frigerio - baixo e percussao
Собственный рип
Отчет ЕАС
 
скрытый текст
Exact Audio Copy V0.99 prebeta 5 from 4. May 2009
EAC extraction logfile from 23. July 2010, 20:52
Andre Marques E A Vinteria Brasilieira / De baque as avessas
Used drive : Optiarc DVD RW AD-7243S Adapter: 0 ID: 1
Read mode : Secure
Utilize accurate stream : Yes
Defeat audio cache : Yes
Make use of C2 pointers : No
Read offset correction : 48
Overread into Lead-In and Lead-Out : No
Fill up missing offset samples with silence : Yes
Delete leading and trailing silent blocks : No
Null samples used in CRC calculations : Yes
Used interface : Native Win32 interface for Win NT & 2000
Used output format : User Defined Encoder
Selected bitrate : 768 kBit/s
Quality : High
Add ID3 tag : No
Command line compressor : C:\Program Files\Exact Audio Copy\FLAC\FLAC.EXE
Additional command line options : -6 -V -T "ARTIST=%a" -T "TITLE=%t" -T "ALBUM=%g" -T "DATE=%y" -T "TRACKNUMBER=%n" -T "GENRE=%m" -T "COMMENT=%e" %s -o %d
TOC of the extracted CD
Track | Start | Length | Start sector | End sector
---------------------------------------------------------
1 | 0:00.00 | 7:12.37 | 0 | 32436
2 | 7:12.37 | 6:34.70 | 32437 | 62056
3 | 13:47.32 | 2:11.44 | 62057 | 71925
4 | 15:59.01 | 5:23.03 | 71926 | 96153
5 | 21:22.04 | 1:42.70 | 96154 | 103873
6 | 23:04.74 | 5:51.19 | 103874 | 130217
7 | 28:56.18 | 4:45.19 | 130218 | 151611
8 | 33:41.37 | 10:06.19 | 151612 | 197080
9 | 43:47.56 | 12:14.56 | 197081 | 252186
10 | 56:02.37 | 6:16.41 | 252187 | 280427
11 | 62:19.03 | 7:18.00 | 280428 | 313277
12 | 69:37.03 | 6:06.67 | 313278 | 340794
Range status and errors
Selected range
Filename C:\Documents and Settings\S\Мои документы\Torrent раздача\Andre Marques E A Vinteria Brasilieira - De baque as avessas.wav
Peak level 100.0 %
Range quality 100.0 %
Copy CRC D5BAE3AB
Copy OK
No errors occurred
AccurateRip summary
Track 1 not present in database
Track 2 not present in database
Track 3 not present in database
Track 4 not present in database
Track 5 not present in database
Track 6 not present in database
Track 7 not present in database
Track 8 not present in database
Track 9 not present in database
Track 10 not present in database
Track 11 not present in database
Track 12 not present in database
None of the tracks are present in the AccurateRip database
End of status report
CUE
 
скрытый текст
REM GENRE Avantgarde
REM DATE 2003
REM DISCID B211BF0C
REM COMMENT "ExactAudioCopy v0.99pb5"
PERFORMER "Andre Marques E A Vinteria Brasilieira"
TITLE "De baque as avessas"
FILE "Andre Marques E A Vinteria Brasilieira - De baque as avessas.flac" WAVE
TRACK 01 AUDIO
TITLE "meia-volta volver"
PERFORMER "Andre Marques E A Vinteria Brasilieira"
INDEX 01 00:00:00
TRACK 02 AUDIO
TITLE "Ao infinito"
PERFORMER "Andre Marques E A Vinteria Brasilieira"
INDEX 01 07:12:37
TRACK 03 AUDIO
TITLE "Seu ze- capitulo 1 - um recado para seu ze"
PERFORMER "Andre Marques E A Vinteria Brasilieira"
INDEX 01 13:47:32
TRACK 04 AUDIO
TITLE "Seu ze- capitulo 2 - ' o arranca-rado de seu ze e dona epifania'"
PERFORMER "Andre Marques E A Vinteria Brasilieira"
INDEX 01 15:59:01
TRACK 05 AUDIO
TITLE "Seu ze- capitulo 3 - 'o final feliz'"
PERFORMER "Andre Marques E A Vinteria Brasilieira"
INDEX 01 21:22:04
TRACK 06 AUDIO
TITLE "Terra vermelha"
PERFORMER "Andre Marques E A Vinteria Brasilieira"
INDEX 01 23:04:74
TRACK 07 AUDIO
TITLE "De baque as avessas"
PERFORMER "Andre Marques E A Vinteria Brasilieira"
INDEX 01 28:56:18
TRACK 08 AUDIO
TITLE "A caminho do baile"
PERFORMER "Andre Marques E A Vinteria Brasilieira"
INDEX 01 33:41:37
TRACK 09 AUDIO
TITLE "O boi de tatui"
PERFORMER "Andre Marques E A Vinteria Brasilieira"
INDEX 01 43:47:56
TRACK 10 AUDIO
TITLE "Maxixada"
PERFORMER "Andre Marques E A Vinteria Brasilieira"
INDEX 01 56:02:37
TRACK 11 AUDIO
TITLE "Coracao distante"
PERFORMER "Andre Marques E A Vinteria Brasilieira"
INDEX 00 62:18:03
INDEX 01 62:19:03
TRACK 12 AUDIO
TITLE "Mais um"
PERFORMER "Andre Marques E A Vinteria Brasilieira"
INDEX 01 69:37:03
http://www.myspace.com/vintenabrasileira
Другие раздачи
http://rutracker.org/forum/search.php?uid=17163016
17:10
302
Нет комментариев. Ваш будет первым!