Вы используете незарегистрированную версию компонента "Вкладки"!

Поиск

(Avant-Garde Jazz, Modern Creative) Gebhard Ullmann - Essencia - Featuring Carlos Bica - 2001 (2005), FLAC (tracks+.cue), lossless

(Avant-Garde Jazz, Modern Creative) Gebhard Ullmann - Essencia - Featuring Carlos Bica - 2001 (2005), FLAC (tracks+.cue), lossless
Треклист:
Gebhard Ullmann - Essencia
featuring Carlos Bica
Стиль: Avant-Garde Jazz, Modern Creative
Год выпуска диска: 2001 (2005)
# Recorded by ekkehard stoffregen at SFB studios, berlin
february 22nd - 24th 1999
# Recording supervisor: wolfgang hoff; mixed on april 19th,1999
# Audio CD (Sep 13 2005)
# Original Release Date: 2001
Производитель диска: germany
Аудио кодек: FLAC
Тип рипа: tracks+.cue
Битрейт аудио: lossless
Продолжительность: 59:15
Источник: usenet
Трэклист:
01. sombras e nevoeiro / a luz da sombra 8:08
02. essencia (grave) 4:08
03. gospel 6:45
04. haiku 1:32
05. o profeta II 4:37
06. pinóquio 5:26
07. bella und herr t. 5:45
08. walking poem no.2 1:43
09. planicies 3:56
10. essencia (largo) 4:36
11. chinesisches gedicht no.3 5:38
12. simple melody 7:00
all compositions by ullmann/bica/thomas except:
01part 2, 05, 09, 12 (bica); 03 (ullmann);
07 (bica/thomas); 10 (ullmann/bica)
 
info
"the final result is a magical recording, different than most anything i've heard before, and once again bringing the secret of melodic beauty back to free improvisation. hearing 'essencia' is like discovering charlie haden for the first time" (phillip mcnally, cadence magazine new york '01)
"the mostly improvised date is rife with new methods of creating and contrasting melody ... the music is gentle and hypnotising" (daniel piotrowski, jazz times usa '02)
" bicas oft gestrichener bass, thomas' überraschend freies piano sowie ullmanns saxofon und bassklarinette formen kammermusikalische preziosen jenseits aller free-jazz-klischees, zwischen duftiger intimität und ergreifender intensität. musik 9, klang 9. (sven thielmann, stereoplay, 6/'05)
recorded by ekkehard stoffregen at SFB studios, berlin
february 22nd - 24th 1999
recording supervisor: wolfgang hoff; mixed on april 19th,1999
digital mastering: ricarda molder
produced by between the lines gmbh & co.ohg; artistic director: franz koglmann
gebhard ullmann - bcl, ss, ts
carlos bica - bass
jens thomas - piano
www.gebhard-ullmann.com/essencia.htm
 
eac
Exact Audio Copy V0.99 prebeta 4 from 23. January 2008
EAC extraction logfile from -
g.ullman,c.bica,j.thomas / gebhard_ullmann-essencia
Used drive : TSSTcorpCDDVDW SH-S223F Adapter: 0 ID: 0
Read mode : Secure
Utilize accurate stream : Yes
Defeat audio cache : Yes
Make use of C2 pointers : No
Read offset correction : 6
Overread into Lead-In and Lead-Out : No
Fill up missing offset samples with silence : Yes
Delete leading and trailing silent blocks : No
Null samples used in CRC calculations : No
Used interface : Installed external ASPI interface
Gap handling : Appended to previous track
Used output format : Internal WAV Routines
Sample format : 44.100 Hz; 16 Bit; Stereo
TOC of the extracted CD
Track | Start | Length | Start sector | End sector
---------------------------------------------------------
1 | 0:00.00 | 8:08.12 | 0 | 36611
2 | 8:08.12 | 4:08.43 | 36612 | 55254
3 | 12:16.55 | 6:45.12 | 55255 | 85641
4 | 19:01.67 | 1:31.55 | 85642 | 92521
5 | 20:33.47 | 4:36.73 | 92522 | 113294
6 | 25:10.45 | 5:25.35 | 113295 | 137704
7 | 30:36.05 | 5:45.17 | 137705 | 163596
8 | 36:21.22 | 1:43.50 | 163597 | 171371
9 | 38:04.72 | 3:55.23 | 171372 | 189019
10 | 42:00.20 | 4:35.62 | 189020 | 209706
11 | 46:36.07 | 5:38.03 | 209707 | 235059
12 | 52:14.10 | 7:00.30 | 235060 | 266589
Track 1
Filename C:\out\gebhard_ullmann-essencia\gebhard_ullmann-essencia-01-sombras_e_nevoeiro,a_luz_da_sombra.wav
Pre-gap length 0:00:02.00
Peak level 53.3 %
Track quality 100.0 %
Copy CRC 0DCECD7F
Cannot be verified as accurate (confidence 1) [8078031F], AccurateRip returned [15097445]
Copy OK
Track 2
Filename C:\out\gebhard_ullmann-essencia\gebhard_ullmann-essencia-02-essencia-grave.wav
Peak level 61.8 %
Track quality 100.0 %
Copy CRC 0905F34E
Cannot be verified as accurate (confidence 1) [E00F603A], AccurateRip returned [B172A9BD]
Copy OK
Track 3
Filename C:\out\gebhard_ullmann-essencia\gebhard_ullmann-essencia-03-gospel.wav
Peak level 85.6 %
Track quality 100.0 %
Copy CRC 83E1BDD5
Cannot be verified as accurate (confidence 1) [74AFECBE], AccurateRip returned [EDA75F8D]
Copy OK
Track 4
Filename C:\out\gebhard_ullmann-essencia\gebhard_ullmann-essencia-04-haiku.wav
Peak level 6.3 %
Track quality 100.0 %
Copy CRC E5680988
Cannot be verified as accurate (confidence 1) [AF99A8A8], AccurateRip returned [E303E867]
Copy OK
Track 5
Filename C:\out\gebhard_ullmann-essencia\gebhard_ullmann-essencia-05-o_profeta_ii.wav
Peak level 100.0 %
Track quality 100.0 %
Copy CRC 70D79219
Cannot be verified as accurate (confidence 1) [69C92B23], AccurateRip returned [8A13E1FB]
Copy OK
Track 6
Filename C:\out\gebhard_ullmann-essencia\gebhard_ullmann-essencia-06-pinoquio.wav
Peak level 90.4 %
Track quality 100.0 %
Copy CRC 0BE91B24
Cannot be verified as accurate (confidence 1) [B41A1400], AccurateRip returned [CF5CBEAD]
Copy OK
Track 7
Filename C:\out\gebhard_ullmann-essencia\gebhard_ullmann-essencia-07-bella_und_herr_t.wav
Peak level 49.7 %
Track quality 100.0 %
Copy CRC CDA78441
Cannot be verified as accurate (confidence 1) [DA9F4AFE], AccurateRip returned [F8DB9E49]
Copy OK
Track 8
Filename C:\out\gebhard_ullmann-essencia\gebhard_ullmann-essencia-08-walking_poem_n02.wav
Peak level 63.5 %
Track quality 100.0 %
Copy CRC 18092B97
Cannot be verified as accurate (confidence 1) [BC14F402], AccurateRip returned [B19A5CCE]
Copy OK
Track 9
Filename C:\out\gebhard_ullmann-essencia\gebhard_ullmann-essencia-09-planicies.wav
Peak level 66.1 %
Track quality 100.0 %
Copy CRC DAF492C1
Cannot be verified as accurate (confidence 1) [9948EECB], AccurateRip returned [82B1993F]
Copy OK
Track 10
Filename C:\out\gebhard_ullmann-essencia\gebhard_ullmann-essencia-10-essencia-largo.wav
Peak level 50.5 %
Track quality 100.0 %
Copy CRC 8DA8DCCA
Cannot be verified as accurate (confidence 1) [9356C876], AccurateRip returned [8CAA5A89]
Copy OK
Track 11
Filename C:\out\gebhard_ullmann-essencia\gebhard_ullmann-essencia-11-chinesisches_gedicht_n03.wav
Peak level 92.9 %
Track quality 99.9 %
Copy CRC C22281F5
Cannot be verified as accurate (confidence 1) [DEFA8FEB], AccurateRip returned [E1884F69]
Copy OK
Track 12
Filename C:\out\gebhard_ullmann-essencia\gebhard_ullmann-essencia-12-simple_melody.wav
Peak level 58.4 %
Track quality 99.9 %
Copy CRC C5000A4F
Cannot be verified as accurate (confidence 1) [33605417], AccurateRip returned [2B0AACA5]
Copy OK
No tracks could be verified as accurate
You may have a different pressing from the one(s) in the database
No errors occurred
End of status report
 
cue
REM DATE 1999
REM DISCID A40DE20C
REM COMMENT "ExactAudioCopy v0.99pb4"
PERFORMER "g.ullman,c.bica,j.thomas"
TITLE "gebhard_ullmann-essencia"
FILE "gebhard_ullmann-essencia-01-sombras_e_nevoeiro,a_luz_da_sombra.wav" WAVE
TRACK 01 AUDIO
TITLE "sombras_e_nevoeiro/a_luz_da_sombra"
PERFORMER "g.ullman,c.bica,j.thomas"
INDEX 01 00:00:00
FILE "gebhard_ullmann-essencia-02-essencia-grave.wav" WAVE
TRACK 02 AUDIO
TITLE "essencia-grave"
PERFORMER "g.ullman,c.bica,j.thomas"
INDEX 01 00:00:00
FILE "gebhard_ullmann-essencia-03-gospel.wav" WAVE
TRACK 03 AUDIO
TITLE "gospel"
PERFORMER "g.ullman,c.bica,j.thomas"
INDEX 01 00:00:00
FILE "gebhard_ullmann-essencia-04-haiku.wav" WAVE
TRACK 04 AUDIO
TITLE "haiku"
PERFORMER "g.ullman,c.bica,j.thomas"
INDEX 01 00:00:00
FILE "gebhard_ullmann-essencia-05-o_profeta_ii.wav" WAVE
TRACK 05 AUDIO
TITLE "o_profeta_ii"
PERFORMER "g.ullman,c.bica,j.thomas"
INDEX 01 00:00:00
FILE "gebhard_ullmann-essencia-06-pinoquio.wav" WAVE
TRACK 06 AUDIO
TITLE "pinoquio"
PERFORMER "g.ullman,c.bica,j.thomas"
INDEX 01 00:00:00
FILE "gebhard_ullmann-essencia-07-bella_und_herr_t.wav" WAVE
TRACK 07 AUDIO
TITLE "bella_und_herr_t"
PERFORMER "g.ullman,c.bica,j.thomas"
INDEX 01 00:00:00
FILE "gebhard_ullmann-essencia-08-walking_poem_n02.wav" WAVE
TRACK 08 AUDIO
TITLE "walking_poem_n02"
PERFORMER "g.ullman,c.bica,j.thomas"
INDEX 01 00:00:00
FILE "gebhard_ullmann-essencia-09-planicies.wav" WAVE
TRACK 09 AUDIO
TITLE "planicies"
PERFORMER "g.ullman,c.bica,j.thomas"
INDEX 01 00:00:00
FILE "gebhard_ullmann-essencia-10-essencia-largo.wav" WAVE
TRACK 10 AUDIO
TITLE "essencia-largo"
PERFORMER "g.ullman,c.bica,j.thomas"
INDEX 01 00:00:00
FILE "gebhard_ullmann-essencia-11-chinesisches_gedicht_n03.wav" WAVE
TRACK 11 AUDIO
TITLE "chinesisches_gedicht_n03"
PERFORMER "g.ullman,c.bica,j.thomas"
INDEX 01 00:00:00
FILE "gebhard_ullmann-essencia-12-simple_melody.wav" WAVE
TRACK 12 AUDIO
TITLE "simple_melody"
PERFORMER "g.ullman,c.bica,j.thomas"
INDEX 01 00:00:00
 
подправленный cue
REM DATE 2001
REM DISCID A40DE20C
REM COMMENT "ExactAudioCopy v0.99pb4"
PERFORMER "gebhard ullmann"
TITLE "essencia"
FILE "gebhard_ullmann-essencia-01-sombras_e_nevoeiro,a_luz_da_sombra.wav" WAVE
TRACK 01 AUDIO
TITLE "sombras e nevoeiro / a luz da sombra"
PERFORMER "gebhard ullmann"
INDEX 01 00:00:00
FILE "gebhard_ullmann-essencia-02-essencia-grave.wav" WAVE
TRACK 02 AUDIO
TITLE "essencia (grave)"
PERFORMER "gebhard ullmann"
INDEX 01 00:00:00
FILE "gebhard_ullmann-essencia-03-gospel.wav" WAVE
TRACK 03 AUDIO
TITLE "gospel"
PERFORMER "gebhard ullmann"
INDEX 01 00:00:00
FILE "gebhard_ullmann-essencia-04-haiku.wav" WAVE
TRACK 04 AUDIO
TITLE "haiku"
PERFORMER "gebhard ullmann"
INDEX 01 00:00:00
FILE "gebhard_ullmann-essencia-05-o_profeta_ii.wav" WAVE
TRACK 05 AUDIO
TITLE "o profeta II"
PERFORMER "gebhard ullmann"
INDEX 01 00:00:00
FILE "gebhard_ullmann-essencia-06-pinoquio.wav" WAVE
TRACK 06 AUDIO
TITLE "pinoquio"
PERFORMER "gebhard ullmann"
INDEX 01 00:00:00
FILE "gebhard_ullmann-essencia-07-bella_und_herr_t.wav" WAVE
TRACK 07 AUDIO
TITLE "bella und herr t."
PERFORMER "gebhard ullmann"
INDEX 01 00:00:00
FILE "gebhard_ullmann-essencia-08-walking_poem_n02.wav" WAVE
TRACK 08 AUDIO
TITLE "walking poem no.2"
PERFORMER "gebhard ullmann"
INDEX 01 00:00:00
FILE "gebhard_ullmann-essencia-09-planicies.wav" WAVE
TRACK 09 AUDIO
TITLE "planicies"
PERFORMER "gebhard ullmann"
INDEX 01 00:00:00
FILE "gebhard_ullmann-essencia-10-essencia-largo.wav" WAVE
TRACK 10 AUDIO
TITLE "essencia (largo)"
PERFORMER "gebhard ullmann"
INDEX 01 00:00:00
FILE "gebhard_ullmann-essencia-11-chinesisches_gedicht_n03.wav" WAVE
TRACK 11 AUDIO
TITLE "chinesisches gedicht no.3"
PERFORMER "gebhard ullmann"
INDEX 01 00:00:00
FILE "gebhard_ullmann-essencia-12-simple_melody.wav" WAVE
TRACK 12 AUDIO
TITLE "simple melody"
PERFORMER "gebhard ullmann"
INDEX 01 00:00:00
 
audiochecker
AUDIOCHECKER v2.0 beta (build 457) - by Dester - opdester@freemail.hu
~~~~~~~~~~~~~~~~~~~~~~~~~~~~~~~~~~
Started at: пятница, 14. 05. 2010. - 14:19.01
12 files found
01 -===- D:\gebhard ullmann - essencia - featuring carlos bica\gebhard_ullmann-essencia-01-sombras_e_nevoeiro,a_luz_da_sombra.flac
Extracted successfully
Conclusion: this track is CDDA with probability 43%
Tempfile successfully deleted.
02 -===- D:\gebhard ullmann - essencia - featuring carlos bica\gebhard_ullmann-essencia-02-essencia-grave.flac
Extracted successfully
Conclusion: this track is CDDA with probability 99%
Tempfile successfully deleted.
03 -===- D:\gebhard ullmann - essencia - featuring carlos bica\gebhard_ullmann-essencia-03-gospel.flac
Extracted successfully
Conclusion: this track is CDDA with probability 99%
Tempfile successfully deleted.
04 -===- D:\gebhard ullmann - essencia - featuring carlos bica\gebhard_ullmann-essencia-04-haiku.flac
Extracted successfully
Conclusion: this track is CDDA with probability 100%
Tempfile successfully deleted.
05 -===- D:\gebhard ullmann - essencia - featuring carlos bica\gebhard_ullmann-essencia-05-o_profeta_ii.flac
Extracted successfully
Conclusion: this track is CDDA with probability 94%
Tempfile successfully deleted.
06 -===- D:\gebhard ullmann - essencia - featuring carlos bica\gebhard_ullmann-essencia-06-pinoquio.flac
Extracted successfully
Conclusion: this track is CDDA with probability 100%
Tempfile successfully deleted.
07 -===- D:\gebhard ullmann - essencia - featuring carlos bica\gebhard_ullmann-essencia-07-bella_und_herr_t.flac
Extracted successfully
Conclusion: this track is CDDA with probability 100%
Tempfile successfully deleted.
08 -===- D:\gebhard ullmann - essencia - featuring carlos bica\gebhard_ullmann-essencia-08-walking_poem_n02.flac
Extracted successfully
Conclusion: this track is CDDA with probability 100%
Tempfile successfully deleted.
09 -===- D:\gebhard ullmann - essencia - featuring carlos bica\gebhard_ullmann-essencia-09-planicies.flac
Extracted successfully
Conclusion: this track is CDDA with probability 100%
Tempfile successfully deleted.
10 -===- D:\gebhard ullmann - essencia - featuring carlos bica\gebhard_ullmann-essencia-10-essencia-largo.flac
Extracted successfully
Conclusion: this track is CDDA with probability 100%
Tempfile successfully deleted.
11 -===- D:\gebhard ullmann - essencia - featuring carlos bica\gebhard_ullmann-essencia-11-chinesisches_gedicht_n03.flac
Extracted successfully
Conclusion: this track is CDDA with probability 100%
Tempfile successfully deleted.
12 -===- D:\gebhard ullmann - essencia - featuring carlos bica\gebhard_ullmann-essencia-12-simple_melody.flac
Extracted successfully
Conclusion: this track is CDDA with probability 99%
Tempfile successfully deleted.
Finished at: пятница, 14. 05. 2010. - 14:29.55 (operation time: 0:10.54)
От себя: подправилa теги в .cue и .flac файлах.
По всем вопросам пишите личное сообщение пользователю M0p94ok.
22:58
171
Нет комментариев. Ваш будет первым!