Вы используете незарегистрированную версию компонента "Вкладки"!

Поиск

(Avant-Garde Jazz, Modern Creative) Gebhard Ullmann, Chris Dahlgren, Art Lande - Die Blaue Nixe - 2006, FLAC (tracks+.cue), lossless

(Avant-Garde Jazz, Modern Creative) Gebhard Ullmann, Chris Dahlgren, Art Lande - Die Blaue Nixe - 2006, FLAC (tracks+.cue), lossless
Треклист:
Gebhard Ullmann, Chris Dahlgren, Art Lande - Die Blaue Nixe
Жанр: Avant-Garde Jazz, Modern Creative
Страна-производитель диска: Germany
Год издания: 2006
Издатель (лейбл): Between the Lines
Номер по каталогу: BTLCHR 71216
Страна: Germany
Аудиокодек: FLAC (*.flac)
Тип рипа: tracks+.cue
Битрейт аудио: lossless
Продолжительность: 58:42
Источник (релизер): собственный диск
Наличие сканов в содержимом раздачи: 600dpi
1 Blaue Nixe (Teil 1)
2 Blaue Nixe (Teil 2)
3 Verschiedene Annäherungen an den Ton Ges
4 Spieldosen
5 Winter Thoughts
6 BaBa
7 Blaue Nixe (Teil 3)
8 Blaue Nixe (Teil 4)
9 The Sun Seemed Never Again As Yellow
10 Blaue Nixe (Teil 5)
11 Blaue Nixe (Teil 6)
12 Blaue Nixe (Teil 7)
13 Das Tiefe A
14 Flutist With Hat And Shoe
15 From What I Remember
16 Untitled
 
Лог создания рипа
Exact Audio Copy V1.0 beta 3 from 29. August 2011
EAC extraction logfile from 19. January 2013, 15:31
Gebhard Ullmann, Chris Dahlgren, Art Lande / Die Blaue Nixe
Used drive : SlimtypeDVD A DS8A5SH Adapter: 0 ID: 1
Read mode : Secure
Utilize accurate stream : Yes
Defeat audio cache : Yes
Make use of C2 pointers : No
Read offset correction : 6
Overread into Lead-In and Lead-Out : No
Fill up missing offset samples with silence : Yes
Delete leading and trailing silent blocks : No
Null samples used in CRC calculations : Yes
Used interface : Native Win32 interface for Win NT & 2000
Gap handling : Appended to previous track
Used output format : User Defined Encoder
Selected bitrate : 128 kBit/s
Quality : High
Add ID3 tag : No
Command line compressor : C:\Program Files (x86)\Exact Audio Copy\Flac\flac.exe
Additional command line options : -V -8 -T "Genre=%genre%" -T "Artist=%artist%" -T "Title=%title%" -T "Album=%albumtitle%" -T "Date=%year%" -T "Tracknumber=%tracknr%" -T "Comment=%comment%" %source%
TOC of the extracted CD
Track | Start | Length | Start sector | End sector
---------------------------------------------------------
1 | 0:00.00 | 3:32.44 | 0 | 15943
2 | 3:32.44 | 3:13.21 | 15944 | 30439
3 | 6:45.65 | 7:15.74 | 30440 | 63138
4 | 14:01.64 | 2:18.31 | 63139 | 73519
5 | 16:20.20 | 3:59.31 | 73520 | 91475
6 | 20:19.51 | 4:43.23 | 91476 | 112723
7 | 25:02.74 | 2:48.22 | 112724 | 125345
8 | 27:51.21 | 3:30.46 | 125346 | 141141
9 | 31:21.67 | 3:38.12 | 141142 | 157503
10 | 35:00.04 | 2:55.34 | 157504 | 170662
11 | 37:55.38 | 3:30.28 | 170663 | 186440
12 | 41:25.66 | 1:26.19 | 186441 | 192909
13 | 42:52.10 | 3:07.37 | 192910 | 206971
14 | 45:59.47 | 5:23.13 | 206972 | 231209
15 | 51:22.60 | 0:30.63 | 231210 | 233522
16 | 51:53.48 | 6:55.06 | 233523 | 264653
Track 1
Filename D:\Die Blaue Nixe\01. Blaue Nixe (Teil 1).wav
Pre-gap length 0:00:02.00
Peak level 57.1 %
Extraction speed 2.7 X
Track quality 100.0 %
Test CRC 230DFE5D
Copy CRC 230DFE5D
Copy OK
Track 2
Filename D:\Die Blaue Nixe\02. Blaue Nixe (Teil 2).wav
Peak level 84.3 %
Extraction speed 2.9 X
Track quality 100.0 %
Test CRC 15C2295D
Copy CRC 15C2295D
Copy OK
Track 3
Filename D:\Die Blaue Nixe\03. Verschiedene Annaherungen an den Ton Ges.wav
Peak level 100.0 %
Extraction speed 3.5 X
Track quality 100.0 %
Test CRC E7BA7E8C
Copy CRC E7BA7E8C
Copy OK
Track 4
Filename D:\Die Blaue Nixe\04. Spieldosen.wav
Peak level 100.0 %
Extraction speed 2.7 X
Track quality 99.9 %
Test CRC EFCD0FB0
Copy CRC EFCD0FB0
Copy OK
Track 5
Filename D:\Die Blaue Nixe\05. Winter Thoughts.wav
Pre-gap length 0:00:01.65
Peak level 50.2 %
Extraction speed 3.7 X
Track quality 100.0 %
Test CRC 90B2877B
Copy CRC 90B2877B
Copy OK
Track 6
Filename D:\Die Blaue Nixe\06. BaBa.wav
Pre-gap length 0:00:00.29
Peak level 72.6 %
Extraction speed 4.1 X
Track quality 100.0 %
Test CRC B9B68CF0
Copy CRC B9B68CF0
Copy OK
Track 7
Filename D:\Die Blaue Nixe\07. Blaue Nixe (Teil 3).wav
Peak level 100.0 %
Extraction speed 3.3 X
Track quality 99.9 %
Test CRC 591C8EF7
Copy CRC 591C8EF7
Copy OK
Track 8
Filename D:\Die Blaue Nixe\08. Blaue Nixe (Teil 4).wav
Pre-gap length 0:00:07.00
Peak level 51.0 %
Extraction speed 4.3 X
Track quality 100.0 %
Test CRC 03E4F421
Copy CRC 03E4F421
Copy OK
Track 9
Filename D:\Die Blaue Nixe\09. The Sun Seemed Never Again As Yellow.wav
Pre-gap length 0:00:00.21
Peak level 100.0 %
Extraction speed 4.4 X
Track quality 100.0 %
Test CRC 5273367B
Copy CRC 5273367B
Copy OK
Track 10
Filename D:\Die Blaue Nixe\10. Blaue Nixe (Teil 5).wav
Pre-gap length 0:00:05.00
Peak level 66.1 %
Extraction speed 4.4 X
Track quality 100.0 %
Test CRC 4BB7BEBF
Copy CRC 4BB7BEBF
Copy OK
Track 11
Filename D:\Die Blaue Nixe\11. Blaue Nixe (Teil 6).wav
Peak level 91.6 %
Extraction speed 4.7 X
Track quality 100.0 %
Test CRC 719569A6
Copy CRC 719569A6
Copy OK
Track 12
Filename D:\Die Blaue Nixe\12. Blaue Nixe (Teil 7).wav
Peak level 60.2 %
Extraction speed 3.9 X
Track quality 100.0 %
Test CRC 7ED17565
Copy CRC 7ED17565
Copy OK
Track 13
Filename D:\Die Blaue Nixe\13. Das Tiefe A.wav
Pre-gap length 0:00:06.00
Peak level 100.0 %
Extraction speed 4.7 X
Track quality 100.0 %
Test CRC 11956F74
Copy CRC 11956F74
Copy OK
Track 14
Filename D:\Die Blaue Nixe\14. Flutist With Hat And Shoe.wav
Pre-gap length 0:00:02.74
Peak level 98.6 %
Extraction speed 5.3 X
Track quality 100.0 %
Test CRC 791AE88D
Copy CRC 791AE88D
Copy OK
Track 15
Filename D:\Die Blaue Nixe\15. From What I Remember.wav
Peak level 0.0 %
Extraction speed 1.7 X
Track quality 99.6 %
Test CRC 5B38BE02
Copy CRC 5B38BE02
Copy OK
Track 16
Filename D:\Die Blaue Nixe\16. Untitle.wav
Peak level 99.9 %
Extraction speed 5.7 X
Track quality 100.0 %
Test CRC 27EE2630
Copy CRC 27EE2630
Copy OK
No errors occurred
End of status report
==== Log checksum 1B287FABD9B7F34EE05D673316D102E2234BBE4FA0B6FD71E6C17117C83DAFC7 ====
 
Содержание индексной карты (.CUE)
REM GENRE Avantgarde
REM DATE 2004
REM DISCID D20DC810
REM COMMENT "ExactAudioCopy v1.0b3"
PERFORMER "Gebhard Ullmann, Chris Dahlgren, Art Lande"
TITLE "Die Blaue Nixe"
FILE "01. Blaue Nixe (Teil 1).wav" WAVE
TRACK 01 AUDIO
TITLE "Blaue Nixe (Teil 1)"
PERFORMER "Gebhard Ullmann, Chris Dahlgren, Art Lande"
INDEX 01 00:00:00
FILE "02. Blaue Nixe (Teil 2).wav" WAVE
TRACK 02 AUDIO
TITLE "Blaue Nixe (Teil 2)"
PERFORMER "Gebhard Ullmann, Chris Dahlgren, Art Lande"
INDEX 01 00:00:00
FILE "03. Verschiedene Annaherungen an den Ton Ges.wav" WAVE
TRACK 03 AUDIO
TITLE "Verschiedene Annaherungen an den Ton Ges"
PERFORMER "Gebhard Ullmann, Chris Dahlgren, Art Lande"
INDEX 01 00:00:00
FILE "04. Spieldosen.wav" WAVE
TRACK 04 AUDIO
TITLE "Spieldosen"
PERFORMER "Gebhard Ullmann, Chris Dahlgren, Art Lande"
INDEX 01 00:00:00
TRACK 05 AUDIO
TITLE "Winter Thoughts"
PERFORMER "Gebhard Ullmann, Chris Dahlgren, Art Lande"
INDEX 00 02:16:41
FILE "05. Winter Thoughts.wav" WAVE
INDEX 01 00:00:00
TRACK 06 AUDIO
TITLE "BaBa"
PERFORMER "Gebhard Ullmann, Chris Dahlgren, Art Lande"
INDEX 00 03:59:02
FILE "06. BaBa.wav" WAVE
INDEX 01 00:00:00
FILE "07. Blaue Nixe (Teil 3).wav" WAVE
TRACK 07 AUDIO
TITLE "Blaue Nixe (Teil 3)"
PERFORMER "Gebhard Ullmann, Chris Dahlgren, Art Lande"
INDEX 01 00:00:00
TRACK 08 AUDIO
TITLE "Blaue Nixe (Teil 4)"
PERFORMER "Gebhard Ullmann, Chris Dahlgren, Art Lande"
INDEX 00 02:41:22
FILE "08. Blaue Nixe (Teil 4).wav" WAVE
INDEX 01 00:00:00
TRACK 09 AUDIO
TITLE "The Sun Seemed Never Again As Yellow"
PERFORMER "Gebhard Ullmann, Chris Dahlgren, Art Lande"
INDEX 00 03:30:25
FILE "09. The Sun Seemed Never Again As Yellow.wav" WAVE
INDEX 01 00:00:00
TRACK 10 AUDIO
TITLE "Blaue Nixe (Teil 5)"
PERFORMER "Gebhard Ullmann, Chris Dahlgren, Art Lande"
INDEX 00 03:33:12
FILE "10. Blaue Nixe (Teil 5).wav" WAVE
INDEX 01 00:00:00
FILE "11. Blaue Nixe (Teil 6).wav" WAVE
TRACK 11 AUDIO
TITLE "Blaue Nixe (Teil 6)"
PERFORMER "Gebhard Ullmann, Chris Dahlgren, Art Lande"
INDEX 01 00:00:00
FILE "12. Blaue Nixe (Teil 7).wav" WAVE
TRACK 12 AUDIO
TITLE "Blaue Nixe (Teil 7)"
PERFORMER "Gebhard Ullmann, Chris Dahlgren, Art Lande"
INDEX 01 00:00:00
TRACK 13 AUDIO
TITLE "Das Tiefe A"
PERFORMER "Gebhard Ullmann, Chris Dahlgren, Art Lande"
INDEX 00 01:20:19
FILE "13. Das Tiefe A.wav" WAVE
INDEX 01 00:00:00
TRACK 14 AUDIO
TITLE "Flutist With Hat And Shoe"
PERFORMER "Gebhard Ullmann, Chris Dahlgren, Art Lande"
INDEX 00 03:04:38
FILE "14. Flutist With Hat And Shoe.wav" WAVE
INDEX 01 00:00:00
FILE "15. From What I Remember.wav" WAVE
TRACK 15 AUDIO
TITLE "From What I Remember"
PERFORMER "Gebhard Ullmann, Chris Dahlgren, Art Lande"
INDEX 01 00:00:00
FILE "16. Untitle.wav" WAVE
TRACK 16 AUDIO
TITLE "Untitle"
PERFORMER "Gebhard Ullmann, Chris Dahlgren, Art Lande"
INDEX 01 00:00:00
 
Об альбоме
***
Die Blaue Nixe is one of those recordings that suspends time, almost daring you to enter its sound world. If you have the courage, or at least the desire, to have intimate contact with in-the-moment music, you'll be amply rewarded by the time spent with these three superb improvisers.
Gebhard Ullmann, who plays many reeds, has been concentrating on bass clarinet, tenor and soprano saxophone. For this recording, he assembled a trio featuring pianist Art Lande and bassist Chris Dahlgren as equals to explore his musical ideas. With his voracious mind and limitless curiosity, Ullmann brings an intensity and a sense of risk-taking to whatever project he embarks upon.
Ullmann always asks the listener to simply be present, to suspend a judgmental mind, and follow him where the music flows. His eclecticism should not be mistaken, however, for indecisiveness or wanton genre-hopping. His various projects, including the recently released and quite different Basement Research - Live In Munster, all share Ullmann's intensity of purpose and the joy of artistic creation.
The paradox of a jazz recording being an attempt to catch the wind, to freeze the ephemeral, seems particularly apt for Ullmann's music—which always has a strong spine on which it can simultaneously hang and drop. Now you hear it, now it's gone; this intense something changes space and time moment to moment, only to evaporate, leaving nothing but memory.
In describing the making of the record, Ullmann talks about getting together and rehearsing, but ending up recording entirely different music in a very special studio (which, I believe, is the same one used for Essencia). Ullmann, Lande and Dahlgren rehearsed to forget, and then played timeless music which allows you to forget yourself and just be, for an hour.
Lower the lights, put Die Blaue Nixe in your player, and allow this exquisitely recorded music of no-shape and no-mind to engulf you.
By BUDD KOPMAN, February 26, 2007
***
This is the logical follow-up to Essencia even if Gebhard Ullmann completely revamped the trio that now featured Chris Dahlgren on bass and Art Lande on piano. The program consists of a series of collective improvisations and solos that rarely raise the intensity level and can fall either in the ballad or tone poem category. The music can, however, be described as quiet with an edge, and the trio still manages to cover a lot of ground and to proceed in multiple directions. In fact, what prevent the music from getting monotonous are the various approaches and techniques the musicians use. They also play with economy and elevate the concept of less is more. Dahlgren's and Lande's playing can be spare but is always pertinent. While the session can qualify as chamber jazz, there is no doubt that Ullmann's deep tenor sound harkens back to the jazz tradition. On the other hand, when the pianist reaches inside the piano to pluck or gently hammer the strings, or when the bassist resorts to preparations, they clearly foray into free improvisation. Ultimately, Die Blaue Nixe defies categorization. Mystery and depth are the only overarching qualities of a recording that rewards patience and presents yet another side of the multifaceted Ullmann.
by Alain Drouot
***
this is improvised music of the most engaging sort: spare, ethereal sounds that seem as if they've existed forever, lurking in the shadows, waiting for ullmann and company to give them voice.die blaue nixe, along with the simutaneously released 'live in munster' (not two, 2007), are part of a year-long launching of ullmann's fiftieth birthday.
i haven't heard the latter, but the former is an understated, beguiling beginning of the celebration: gorgeously haunting music, like the songs of serene, beatific ghosts. "
dan mcclenaghan, allaboutjazz
***
these fifteen pieces beg, no, demand your attention, as they all are paced at a snail's locomotion. this fascinating concept for improvisation allows for valuable space and makes for wonderful sound. dahlgren's acoustic bass comes across with all the tactile feel of his wood and strings. likewise, the beauty that is ullmann's bass clarinet and the hesitant touch of lande's piano also conveys an all-too-human feel. it may be rare these days, but this recording requires you to adjust the pace of your day to accompany the music."
mark carroto, allabout jazz
***
"Water nymphs are know from ancient legends as female beings, who live in water and bring death through their beauty and song or at least prophesy ruin and depravation - usually of men. The "Blue Water Nymph" of the international trio also casts a spell on listeners, but proclaims enjoyment of outstanding and fascinating music.
The composer and saxophonist Gebhard Ullmann born in Bad Godesberg in 1957 has lived in Berlin since 1983. He conquered the world from there and in the meantime is one of a handful of German musicians, who are perhaps better known in the USA than in their native country. The list of musicians, with whom he has recorded or played, is almost infinite: from Paul Bley, Han Bennink, Bob Moses, Trilok Gurtu, Bobby Previte to Willem Breuker and Enrico Rava - and lots more. He plays in several projects and tours internationally several times a year. His trio with Chris Dahlgren and Art Lande has existed for years and developed its own character, which is far different from the music of Ullmann's other bands, e.g., "Conference Call".
The bassist and composer Chris Dahlgren, born in New York in 1961, studied under Anthony Braxton and Dave Holland, among others. He is one of the most skilled bassists of our time and is also a teacher in high demand (at the Berlin Music College Hanns Eisler) and composer.
Art Lande (1947, New York) is one of the most creative pianists of the past 30 years. His earlier ECM records are unforgettable, among others with Jan Garbarek, Gary Peacock, Mark Isham, but also his current CDs with Nguyen Le.
The music on the "Blue Water Nymph" takes listeners off into another world. Sometimes charged with tension and yet always completely relaxed, the three musicians play and develop motifs, which provoke strong images in the minds of listeners. You can hear in the pieces that most of them were developed by the collaboration of the three musicians. The perfect interaction of the musicians is impressive, and the music entices listeners with its great charisma emanating from the improvisations interlinked with the compositions similar to the attractions of water nymphs."
 
Состав
Gebhard Ullmann - bassclarinet, soprano & tenorsaxophones, ocarinas, toys
Art Lande - piano, toys
Chris Dahlgren - double bass & preparations, toys
Any questions -> support@pro-jazz.com. По всем вопросам пишите -> support@pro-jazz.com
08:27
233
Нет комментариев. Ваш будет первым!