Вы используете незарегистрированную версию компонента "Вкладки"!

Поиск

(Avant-garde Jazz, Modern Creative, Fusion) Floratone (Bill Frisell, Matt Chamberlain, Tucker Martine, Lee Townsend) - Floratone II - 2012, FLAC (tracks+.cue), lossless

(Avant-garde Jazz, Modern Creative, Fusion) Floratone (Bill Frisell, Matt Chamberlain, Tucker Martine, Lee Townsend) - Floratone II - 2012, FLAC (tracks+.cue), lossless
Треклист:
Floratone (Bill Frisell, Matt Chamberlain, Tucker Martine, Lee Townsend) / Floratone II
Жанр: Avant-garde Jazz, Modern Creative, Fusion
Страна-производитель диска: USA
Год издания диска: 2012
Издатель (лейбл): Savoy Jazz
Страна: USA
Аудиокодек: FLAC (*.flac)
Тип рипа: tracks+.cue
Битрейт аудио: lossless
Продолжительность: 38:13
Источник (релизер): what.cd
Наличие сканов в содержимом раздачи: нет
Треклист:
01. The Bloom Is On
02. More Pluck
03. Snake, Rattle
04. Parade
05. Not Over Ever
06. Move
07. Do You Have It?
08. The Time, The Place
09. No Turn Back
10. The Time, The Place (Part 2)
11. Gimme Some
12. Grin and Bite
13. Stand By This
 
Лог создания рипа
Exact Audio Copy V1.0 beta 3 from 29. August 2011
EAC extraction logfile from 10. March 2012, 17:03
Floratone / Floratone II
Used drive : TSSTcorpCDDVDW TS-H653Z Adapter: 0 ID: 1
Read mode : Secure
Utilize accurate stream : Yes
Defeat audio cache : Yes
Make use of C2 pointers : No
Read offset correction : 6
Overread into Lead-In and Lead-Out : No
Fill up missing offset samples with silence : Yes
Delete leading and trailing silent blocks : No
Null samples used in CRC calculations : Yes
Used interface : Native Win32 interface for Win NT & 2000
Gap handling : Appended to previous track
Used output format : User Defined Encoder
Selected bitrate : 1024 kBit/s
Quality : High
Add ID3 tag : No
Command line compressor : C:\Program Files (x86)\Exact Audio Copy\Flac\flac.exe
Additional command line options : -8 -V -T "ARTIST=%artist%" -T "TITLE=%title%" -T "ALBUM=%albumtitle%" -T "DATE=%year%" -T "TRACKNUMBER=%tracknr%" -T "GENRE=%genre%" -T "PERFORMER=%albuminterpret%" -T "COMPOSER=%composer%" %haslyrics%--tag-from-file=LYRICS="%lyricsfile%"%haslyrics% -T "ALBUMARTIST=%albumartist%" -T "DISCNUMBER=%cdnumber%" -T "TOTALDISCS=%totalcds%" -T "TOTALTRACKS=%numtracks%" -T "COMMENT=%comment%" %source% -o %dest%
TOC of the extracted CD
Track | Start | Length | Start sector | End sector
---------------------------------------------------------
1 | 0:00.00 | 4:37.42 | 0 | 20816
2 | 4:37.42 | 3:27.49 | 20817 | 36390
3 | 8:05.16 | 3:28.20 | 36391 | 52010
4 | 11:33.36 | 3:19.53 | 52011 | 66988
5 | 14:53.14 | 1:01.59 | 66989 | 71622
6 | 15:54.73 | 3:00.06 | 71623 | 85128
7 | 18:55.04 | 4:05.67 | 85129 | 103570
8 | 23:00.71 | 2:23.63 | 103571 | 114358
9 | 25:24.59 | 4:01.20 | 114359 | 132453
10 | 29:26.04 | 2:02.62 | 132454 | 141665
11 | 31:28.66 | 2:46.43 | 141666 | 154158
12 | 34:15.34 | 1:04.21 | 154159 | 158979
13 | 35:19.55 | 2:53.56 | 158980 | 172010
Track 1
Filename C:\EAC Rips\01 - The Bloom Is On.wav
Pre-gap length 0:00:02.00
Peak level 96.8 %
Extraction speed 2.9 X
Track quality 99.9 %
Test CRC 2C78B7BF
Copy CRC 2C78B7BF
Track not present in AccurateRip database
Copy OK
Track 2
Filename C:\EAC Rips\02 - More Pluck.wav
Peak level 95.9 %
Extraction speed 3.7 X
Track quality 100.0 %
Test CRC 8A071EBE
Copy CRC 8A071EBE
Track not present in AccurateRip database
Copy OK
Track 3
Filename C:\EAC Rips\03 - Snake, Rattle.wav
Peak level 98.9 %
Extraction speed 4.0 X
Track quality 100.0 %
Test CRC 0312C619
Copy CRC 0312C619
Track not present in AccurateRip database
Copy OK
Track 4
Filename C:\EAC Rips\04 - Parade.wav
Pre-gap length 0:00:00.66
Peak level 96.3 %
Extraction speed 4.2 X
Track quality 100.0 %
Test CRC A5DEDFDA
Copy CRC A5DEDFDA
Track not present in AccurateRip database
Copy OK
Track 5
Filename C:\EAC Rips\05 - Not Over Ever.wav
Pre-gap length 0:00:01.36
Peak level 97.6 %
Extraction speed 3.2 X
Track quality 100.0 %
Test CRC B04565DC
Copy CRC B04565DC
Track not present in AccurateRip database
Copy OK
Track 6
Filename C:\EAC Rips\06 - Move.wav
Peak level 98.2 %
Extraction speed 4.4 X
Track quality 100.0 %
Test CRC 84B0CBF4
Copy CRC 84B0CBF4
Track not present in AccurateRip database
Copy OK
Track 7
Filename C:\EAC Rips\07 - Do You Have It.wav
Peak level 95.9 %
Extraction speed 4.9 X
Track quality 100.0 %
Test CRC C34D4172
Copy CRC C34D4172
Track not present in AccurateRip database
Copy OK
Track 8
Filename C:\EAC Rips\08 - The Time, The Place.wav
Pre-gap length 0:00:01.38
Peak level 95.7 %
Extraction speed 4.7 X
Track quality 100.0 %
Test CRC 77D28878
Copy CRC 77D28878
Track not present in AccurateRip database
Copy OK
Track 9
Filename C:\EAC Rips\09 - No Turn Back.wav
Peak level 97.1 %
Extraction speed 5.3 X
Track quality 100.0 %
Test CRC 502A2312
Copy CRC 502A2312
Track not present in AccurateRip database
Copy OK
Track 10
Filename C:\EAC Rips\10 - The Time, The Place (Part 2).wav
Peak level 95.3 %
Extraction speed 3.4 X
Track quality 99.9 %
Test CRC 2DED7440
Copy CRC 2DED7440
Track not present in AccurateRip database
Copy OK
Track 11
Filename C:\EAC Rips\11 - Gimme Some.wav
Peak level 95.7 %
Extraction speed 5.2 X
Track quality 100.0 %
Test CRC 7C50FE22
Copy CRC 7C50FE22
Track not present in AccurateRip database
Copy OK
Track 12
Filename C:\EAC Rips\12 - Grin and Bite.wav
Pre-gap length 0:00:00.96
Peak level 95.3 %
Extraction speed 4.1 X
Track quality 100.0 %
Test CRC 23E14F5F
Copy CRC 23E14F5F
Track not present in AccurateRip database
Copy OK
Track 13
Filename C:\EAC Rips\13 - Stand By This.wav
Pre-gap length 0:00:01.01
Peak level 97.6 %
Extraction speed 5.5 X
Track quality 100.0 %
Test CRC 60751C70
Copy CRC 60751C70
Track not present in AccurateRip database
Copy OK
None of the tracks are present in the AccurateRip database
No errors occurred
End of status report
---- CUETools DB Plugin V2.1.3
[CTDB TOCID: bm65PRh1aFC6D1tjTlUgwL1cyAg-] found, Submit result: already submitted
[39b07664] (1/1) Accurately ripped
==== Log checksum B5E0DBF9D212F4CE9C0E424013C7EBFD7554465987767D4DC72DF4DD4CA52F09 ====
 
Содержание индексной карты (.CUE)
REM GENRE Jazz
REM DATE 2012
REM DISCID C908F50D
REM COMMENT "ExactAudioCopy v1.0b3"
FILE "01 - The Bloom Is On.wav" WAVE
TRACK 01 AUDIO
INDEX 01 00:00:00
FILE "02 - More Pluck.wav" WAVE
TRACK 02 AUDIO
INDEX 01 00:00:00
FILE "03 - Snake, Rattle.wav" WAVE
TRACK 03 AUDIO
INDEX 01 00:00:00
TRACK 04 AUDIO
INDEX 00 03:27:45
FILE "04 - Parade.wav" WAVE
INDEX 01 00:00:00
TRACK 05 AUDIO
INDEX 00 03:18:26
FILE "05 - Not Over Ever.wav" WAVE
INDEX 01 00:00:00
FILE "06 - Move.wav" WAVE
TRACK 06 AUDIO
INDEX 01 00:00:00
FILE "07 - Do You Have It.wav" WAVE
TRACK 07 AUDIO
INDEX 01 00:00:00
TRACK 08 AUDIO
INDEX 00 04:04:38
FILE "08 - The Time, The Place.wav" WAVE
INDEX 01 00:00:00
FILE "09 - No Turn Back.wav" WAVE
TRACK 09 AUDIO
INDEX 01 00:00:00
FILE "10 - The Time, The Place (Part 2).wav" WAVE
TRACK 10 AUDIO
INDEX 01 00:00:00
FILE "11 - Gimme Some.wav" WAVE
TRACK 11 AUDIO
INDEX 01 00:00:00
TRACK 12 AUDIO
INDEX 00 02:45:46
FILE "12 - Grin and Bite.wav" WAVE
INDEX 01 00:00:00
TRACK 13 AUDIO
INDEX 00 01:03:20
FILE "13 - Stand By This.wav" WAVE
INDEX 01 00:00:00
 
Состав
BILL FRISELL guitars
MATT CHAMBERLAIN drums, percussion
TUCKER MARTINE production
LEE TOWNSEND production
with special guests:
Mike Elizondo - bass
Jon Brion - keyboards
Ron Miles - trumpet
Eyvind Kang - viola
Any questions -> support@pro-jazz.com. По всем вопросам пишите -> support@pro-jazz.com
22:52
246
Нет комментариев. Ваш будет первым!