Вы используете незарегистрированную версию компонента "Вкладки"!

Поиск

(Avant-Garde Jazz / Modern Creative) [CD] Paul Lytton, Ken Vandermark, Philipp Wachsmann - CINC - 2006 [Okka Disk ODL10009], FLAC (tracks+.cue), lossless

(Avant-Garde Jazz / Modern Creative) [CD] Paul Lytton, Ken Vandermark, Philipp Wachsmann - CINC - 2006 [Okka Disk ODL10009], FLAC (tracks+.cue), lossless
Треклист:
Paul Lytton / Ken Vandermark / Philipp Wachsmann - CINC
Жанр: Avant-Garde Jazz / Modern Creative
Носитель: CD
Страна-производитель диска: USA
Год издания: 2006
Издатель (лейбл): Okka Disk
Номер по каталогу: ODL10009 Limited Edition Series
Аудиокодек: FLAC (*.flac)
Тип рипа: tracks+.cue
Битрейт аудио: lossless
Продолжительность: 01:07:58
Источник (релизер): nnm, Джаз Клуб, 30 августа, 2014 / спасибо mishka1981
Наличие сканов в содержимом раздачи: да
Треклист:
1. Poitiers 3 (12:42)
2. Ljubljana 2 (12:00)
3. Ljubljana 3 (9:55)
4. Ljubljana 4 (29:46)
5. Ljubljana 6 (3:32)
Доп. информация:
Musicians:
Paul Lytton - percussion
Ken Vandermark - reeds
Philipp Wachsmann - violin & electronics
Recorded live in concert:
1. Carré Blue, Poitiers , France on Oct. 14, 2004 (engineer unknown)
2, 3, 4, 5 Gromica, Ljubljana, Slovenia on Oct 12, 2004 (engineered by Ikztok Zupan)
Mastered by Bob Weston on Aril 18, 2006
Paul Lytton / Ken Vandermark / Philipp Wachsmann - CINC okkadisk.com
Paul Lytton / Ken Vandermark / Philipp Wachsmann - CINC allaboutjazz.com
Paul Lytton from Wikipedia, the free encyclopedia
Ken Vandermark Official Site
Ken Vandermark from Wikipedia, the free encyclopedia
Philipp Wachsmann from Wikipedia, the free encyclopedia
Philipp Wachsmann материал из Википедии - свободной энциклопедии
 
... back ...
 
... photo ...
 
Лог создания рипа
Exact Audio Copy V1.0 beta 1 from 15. November 2010
EAC extraction logfile from 30. August 2014, 21:46
CINC / CINC
Used drive : Optiarc DVD RW AD-7710H Adapter: 1 ID: 0
Read mode : Secure
Utilize accurate stream : Yes
Defeat audio cache : Yes
Make use of C2 pointers : No
Read offset correction : 48
Overread into Lead-In and Lead-Out : No
Fill up missing offset samples with silence : Yes
Delete leading and trailing silent blocks : No
Null samples used in CRC calculations : Yes
Used interface : Native Win32 interface for Win NT & 2000
Gap handling : Appended to previous track
Used output format : User Defined Encoder
Selected bitrate : 896 kBit/s
Quality : High
Add ID3 tag : No
Command line compressor : C:\Program Files\Exact Audio Copy\FLAC\FLAC.EXE
Additional command line options : -8 -V -T "ARTIST=%a" -T "TITLE=%t" -T "ALBUM=%g" -T "DATE=%y" -T "TRACKNUMBER=%n" -T "GENRE=%m" -T "COMMENT=%e" %j--picture="%i"%j %s -o %d
TOC of the extracted CD
Track | Start | Length | Start sector | End sector
---------------------------------------------------------
1 | 0:00.00 | 12:42.34 | 0 | 57183
2 | 12:42.34 | 12:00.39 | 57184 | 111222
3 | 24:42.73 | 9:55.10 | 111223 | 155857
4 | 34:38.08 | 29:46.74 | 155858 | 289881
5 | 64:25.07 | 3:32.70 | 289882 | 305851
Track 1
Filename C:\MY RIPS\01 - Poitiers 3.wav
Pre-gap length 0:00:02.00
Peak level 100.0 %
Extraction speed 3.3 X
Track quality 100.0 %
Test CRC 528B6AD4
Copy CRC 528B6AD4
Accurately ripped (confidence 1) [17B1EB31]
Copy OK
Track 2
Filename C:\MY RIPS\02 - Ljubjana 2.wav
Peak level 49.0 %
Extraction speed 4.1 X
Track quality 100.0 %
Test CRC A979ECAB
Copy CRC A979ECAB
Accurately ripped (confidence 1) [00454CB0]
Copy OK
Track 3
Filename C:\MY RIPS\03 - Ljubljana 3.wav
Peak level 81.6 %
Extraction speed 4.6 X
Track quality 100.0 %
Test CRC B1DE356E
Copy CRC B1DE356E
Accurately ripped (confidence 1) [D98AC5CA]
Copy OK
Track 4
Filename C:\MY RIPS\04 - Ljubljana 4.wav
Peak level 78.4 %
Extraction speed 5.7 X
Track quality 100.0 %
Test CRC 8FDE3AA5
Copy CRC 8FDE3AA5
Accurately ripped (confidence 1) [FCFB7EBB]
Copy OK
Track 5
Filename C:\MY RIPS\05 - Ljubljana 6.wav
Peak level 29.6 %
Extraction speed 5.5 X
Track quality 100.0 %
Test CRC 06973467
Copy CRC 06973467
Accurately ripped (confidence 1) [5030BC74]
Copy OK
All tracks accurately ripped
No errors occurred
End of status report
==== Log checksum D60E56F19412DDD5B5288BC9D96EDABB2A52594A30AAD61ED9E9CEDE07C58E26 ====
 
Содержание индексной карты (.CUE)
REM DISCID 460FEE05
REM COMMENT "ExactAudioCopy v1.0b1"
PERFORMER "CINC"
TITLE "CINC"
FILE "01 - Poitiers 3.wav" WAVE
TRACK 01 AUDIO
TITLE "Poitiers 3"
PERFORMER "CINC"
FLAGS DCP
INDEX 01 00:00:00
FILE "02 - Ljubjana 2.wav" WAVE
TRACK 02 AUDIO
TITLE "Ljubjana 2"
PERFORMER "CINC"
FLAGS DCP
INDEX 01 00:00:00
FILE "03 - Ljubljana 3.wav" WAVE
TRACK 03 AUDIO
TITLE "Ljubljana 3"
PERFORMER "CINC"
FLAGS DCP
INDEX 01 00:00:00
FILE "04 - Ljubljana 4.wav" WAVE
TRACK 04 AUDIO
TITLE "Ljubljana 4"
PERFORMER "CINC"
FLAGS DCP
INDEX 01 00:00:00
FILE "05 - Ljubljana 6.wav" WAVE
TRACK 05 AUDIO
TITLE "Ljubljana 6"
PERFORMER "CINC"
FLAGS DCP
INDEX 01 00:00:00
 
auCDtect Task Manager
-----------------------
DON'T MODIFY THIS FILE
-----------------------
PERFORMER: auCDtect Task Manager, ver. 1.5.1RC6 build 1.5.1.7
Copyright (c) 2008-2010 y-soft. All rights reserved
http://y-soft.org
ANALYZER: auCDtect: CD records authenticity detector, version 0.8.2
Copyright (c) 2004 Oleg Berngardt. All rights reserved.
Copyright (c) 2004 Alexander Djourik. All rights reserved.
FILE: 05 - Ljubljana 6.flac
Size: 10634444 Hash: C5D0AB64E2BC138A69C5C997145D8147 Accuracy: -m0
Conclusion: CDDA 100%
Signature: 509501CDFDEA8CEF8F07DA5DC415C1EA7398F48D
FILE: 04 - Ljubljana 4.flac
Size: 131197357 Hash: 86B1EF28204BD21C710D857768BB53A3 Accuracy: -m0
Conclusion: CDDA 100%
Signature: A49926177E9CF9735EDD17B2A4EE5CF94A258A42
FILE: 03 - Ljubljana 3.flac
Size: 53076815 Hash: 2A4888066E79916D49D822CFF8E84DF7 Accuracy: -m0
Conclusion: CDDA 100%
Signature: CAFC64EA4027772D17E8CAF9B766AC1D8350F8CD
FILE: 02 - Ljubjana 2.flac
Size: 52735690 Hash: A4DC77A55CCB8CD9DD0A300EFE3F13FD Accuracy: -m0
Conclusion: CDDA 100%
Signature: 110946723B720963A439980FC47FF8BC1484F7DB
FILE: 01 - Poitiers 3.flac
Size: 57366401 Hash: BEAA386B11F5193646A379D84BE24C19 Accuracy: -m0
Conclusion: CDDA 100%
Signature: F81B08FF4394C443E1861026341F43D678CF7E41
... релизы с участием KEN VANDERMARK на трекере ...
По всем вопросам пишите личное сообщение пользователю M0p94ok.
04:27
201
Нет комментариев. Ваш будет первым!