Вы используете незарегистрированную версию компонента "Вкладки"!

Поиск

(Avant-Garde Jazz, Modern Composition) Steuart Liebig & Minim - Quicksilver - 2004, FLAC (tracks+.cue), lossless

(Avant-Garde Jazz, Modern Composition) Steuart Liebig & Minim - Quicksilver - 2004, FLAC (tracks+.cue), lossless
Треклист:
Steuart Liebig & Minim / Quicksilver
Жанр: Avant-Garde Jazz, Modern Composition
Страна-производитель диска: US
Год издания: 2004
Издатель (лейбл): pfMENTUM
Номер по каталогу: CD023
Страна: US
Аудиокодек: FLAC (*.flac)
Тип рипа: tracks+.cue
Битрейт аудио: lossless
Продолжительность: 79:47
Источник (релизер): свой фирменный диск
Наличие сканов в содержимом раздачи: нет
Треклист:
1-23 Mosaic 51:38
24 Chrysanthemum 15:42
25 A Single Rosehip Bursts In Praise 12:23
 
Лог создания рипа
Exact Audio Copy V1.0 beta 2 from 29. April 2011
EAC extraction logfile from 2. November 2012, 22:12
Steuart Liebig/Minim / Quicksilver
Used drive : PIONEER DVD-RW DVR-115D Adapter: 0 ID: 0
Read mode : Secure
Utilize accurate stream : Yes
Defeat audio cache : Yes
Make use of C2 pointers : No
Read offset correction : 48
Overread into Lead-In and Lead-Out : No
Fill up missing offset samples with silence : Yes
Delete leading and trailing silent blocks : No
Null samples used in CRC calculations : Yes
Used interface : Installed external ASPI interface
Gap handling : Appended to previous track
Used output format : User Defined Encoder
Selected bitrate : 896 kBit/s
Quality : High
Add ID3 tag : No
Command line compressor : C:\Program Files\Exact Audio Copy\FLAC\FLAC.EXE
Additional command line options : -6 -V -T "ARTIST=%artist%" -T "TITLE=%title%" -T "ALBUM=%albumtitle%" -T "DATE=%year%" -T "TRACKNUMBER=%tracknr%" -T "GENRE=%genre%" -T "COMMENT=%comment%" -T "BAND=%albuminterpret%" -T "COMPOSER=%composer%" %haslyrics%--ta
TOC of the extracted CD
Track | Start | Length | Start sector | End sector
---------------------------------------------------------
1 | 0:00.00 | 2:27.22 | 0 | 11046
2 | 2:27.22 | 3:17.57 | 11047 | 25878
3 | 5:45.04 | 1:56.09 | 25879 | 34587
4 | 7:41.13 | 2:16.64 | 34588 | 44851
5 | 9:58.02 | 1:41.66 | 44852 | 52492
6 | 11:39.68 | 2:55.23 | 52493 | 65640
7 | 14:35.16 | 1:48.54 | 65641 | 73794
8 | 16:23.70 | 2:22.63 | 73795 | 84507
9 | 18:46.58 | 2:10.53 | 84508 | 94310
10 | 20:57.36 | 1:57.15 | 94311 | 103100
11 | 22:54.51 | 2:42.52 | 103101 | 115302
12 | 25:37.28 | 3:52.63 | 115303 | 132765
13 | 29:30.16 | 2:17.66 | 132766 | 143106
14 | 31:48.07 | 3:03.12 | 143107 | 156843
15 | 34:51.19 | 2:01.48 | 156844 | 165966
16 | 36:52.67 | 2:01.12 | 165967 | 175053
17 | 38:54.04 | 1:54.72 | 175054 | 183675
18 | 40:49.01 | 2:13.39 | 183676 | 193689
19 | 43:02.40 | 1:54.43 | 193690 | 202282
20 | 44:57.08 | 1:01.44 | 202283 | 206901
21 | 45:58.52 | 1:38.21 | 206902 | 214272
22 | 47:36.73 | 1:17.55 | 214273 | 220102
23 | 48:54.53 | 2:46.24 | 220103 | 232576
24 | 51:41.02 | 15:42.40 | 232577 | 303266
25 | 67:23.42 | 12:23.36 | 303267 | 359027
Track 1
Filename D:\zzz\01 - Mosaic 1.wav
Pre-gap length 0:00:02.00
Peak level 96.6 %
Extraction speed 4.3 X
Track quality 100.0 %
Test CRC DFFAE02B
Copy CRC DFFAE02B
Track not present in AccurateRip database
Copy OK
Track 2
Filename D:\zzz\02 - Mosaic 2.wav
Pre-gap length 0:00:03.00
Peak level 96.6 %
Extraction speed 4.8 X
Track quality 100.0 %
Test CRC EE432F88
Copy CRC EE432F88
Track not present in AccurateRip database
Copy OK
Track 3
Filename D:\zzz\03 - Mosaic 3.wav
Pre-gap length 0:00:03.00
Peak level 70.5 %
Extraction speed 4.6 X
Track quality 100.0 %
Test CRC 4F9C3B6C
Copy CRC 4F9C3B6C
Track not present in AccurateRip database
Copy OK
Track 4
Filename D:\zzz\04 - Mosaic 4.wav
Pre-gap length 0:00:03.00
Peak level 96.6 %
Extraction speed 4.9 X
Track quality 100.0 %
Test CRC 457BFEAE
Copy CRC 457BFEAE
Track not present in AccurateRip database
Copy OK
Track 5
Filename D:\zzz\05 - Mosaic 5.wav
Pre-gap length 0:00:03.00
Peak level 96.6 %
Extraction speed 3.7 X
Track quality 99.8 %
Test CRC A45B797C
Copy CRC A45B797C
Track not present in AccurateRip database
Copy OK
Track 6
Filename D:\zzz\06 - Mosaic 6.wav
Pre-gap length 0:00:03.00
Peak level 62.6 %
Extraction speed 4.7 X
Track quality 99.9 %
Test CRC B09B42F6
Copy CRC B09B42F6
Track not present in AccurateRip database
Copy OK
Track 7
Filename D:\zzz\07 - Mosaic 7.wav
Pre-gap length 0:00:03.00
Peak level 61.2 %
Extraction speed 5.1 X
Track quality 100.0 %
Test CRC BCABB73B
Copy CRC BCABB73B
Track not present in AccurateRip database
Copy OK
Track 8
Filename D:\zzz\08 - Mosaic 8.wav
Pre-gap length 0:00:03.00
Peak level 45.0 %
Extraction speed 5.6 X
Track quality 100.0 %
Test CRC 8E97C8A9
Copy CRC 8E97C8A9
Track not present in AccurateRip database
Copy OK
Track 9
Filename D:\zzz\09 - Mosaic 9.wav
Pre-gap length 0:00:03.00
Peak level 96.6 %
Extraction speed 2.9 X
Track quality 99.7 %
Test CRC F0BE36DA
Copy CRC F0BE36DA
Track not present in AccurateRip database
Copy OK
Track 10
Filename D:\zzz\10 - Mosaic 10.wav
Pre-gap length 0:00:03.00
Peak level 96.6 %
Extraction speed 4.5 X
Track quality 99.9 %
Test CRC 9CBC746B
Copy CRC 9CBC746B
Track not present in AccurateRip database
Copy OK
Track 11
Filename D:\zzz\11 - Mosaic 11.wav
Pre-gap length 0:00:03.00
Peak level 38.9 %
Extraction speed 5.3 X
Track quality 99.9 %
Test CRC 65A8981D
Copy CRC 65A8981D
Track not present in AccurateRip database
Copy OK
Track 12
Filename D:\zzz\12 - Mosaic 12.wav
Pre-gap length 0:00:03.00
Peak level 96.6 %
Extraction speed 6.8 X
Track quality 100.0 %
Test CRC 8C01FA72
Copy CRC 8C01FA72
Track not present in AccurateRip database
Copy OK
Track 13
Filename D:\zzz\13 - Mosaic 13.wav
Pre-gap length 0:00:03.00
Peak level 96.6 %
Extraction speed 5.3 X
Track quality 99.9 %
Test CRC 4DD22D0F
Copy CRC 4DD22D0F
Track not present in AccurateRip database
Copy OK
Track 14
Filename D:\zzz\14 - Mosaic 14.wav
Pre-gap length 0:00:03.00
Peak level 96.6 %
Extraction speed 6.9 X
Track quality 100.0 %
Test CRC 3E113A99
Copy CRC 3E113A99
Track not present in AccurateRip database
Copy OK
Track 15
Filename D:\zzz\15 - Mosaic 15.wav
Pre-gap length 0:00:03.00
Peak level 96.6 %
Extraction speed 6.5 X
Track quality 100.0 %
Test CRC 22A03C95
Copy CRC 22A03C95
Track not present in AccurateRip database
Copy OK
Track 16
Filename D:\zzz\16 - Mosaic 16.wav
Pre-gap length 0:00:03.00
Peak level 67.8 %
Extraction speed 5.4 X
Track quality 99.9 %
Test CRC CF04A4FA
Copy CRC CF04A4FA
Track not present in AccurateRip database
Copy OK
Track 17
Filename D:\zzz\17 - Mosaic 17.wav
Pre-gap length 0:00:03.00
Peak level 96.3 %
Extraction speed 6.6 X
Track quality 100.0 %
Test CRC 64816CB3
Copy CRC 64816CB3
Track not present in AccurateRip database
Copy OK
Track 18
Filename D:\zzz\18 - Mosaic 18.wav
Pre-gap length 0:00:03.00
Peak level 81.2 %
Extraction speed 4.2 X
Track quality 99.7 %
Test CRC DB9BE154
Copy CRC DB9BE154
Track not present in AccurateRip database
Copy OK
Track 19
Filename D:\zzz\19 - Mosaic 19.wav
Pre-gap length 0:00:03.00
Peak level 96.6 %
Extraction speed 6.8 X
Track quality 100.0 %
Test CRC B2DBE32B
Copy CRC B2DBE32B
Track not present in AccurateRip database
Copy OK
Track 20
Filename D:\zzz\20 - Mosaic 20.wav
Pre-gap length 0:00:03.00
Peak level 96.6 %
Extraction speed 5.6 X
Track quality 100.0 %
Test CRC E52A5E7D
Copy CRC E52A5E7D
Track not present in AccurateRip database
Copy OK
Track 21
Filename D:\zzz\21 - Mosaic 21.wav
Pre-gap length 0:00:03.00
Peak level 86.1 %
Extraction speed 5.3 X
Track quality 99.8 %
Test CRC 0F59CA99
Copy CRC 0F59CA99
Track not present in AccurateRip database
Copy OK
Track 22
Filename D:\zzz\22 - Mosaic 22.wav
Pre-gap length 0:00:03.00
Peak level 96.6 %
Extraction speed 6.3 X
Track quality 100.0 %
Test CRC ADD05FAE
Copy CRC ADD05FAE
Track not present in AccurateRip database
Copy OK
Track 23
Filename D:\zzz\23 - Mosaic 23.wav
Pre-gap length 0:00:03.00
Peak level 82.2 %
Extraction speed 6.6 X
Track quality 99.9 %
Test CRC A15C7182
Copy CRC A15C7182
Track not present in AccurateRip database
Copy OK
Track 24
Filename D:\zzz\24 - Chrysanthemum.wav
Pre-gap length 0:00:05.00
Peak level 96.6 %
Extraction speed 9.2 X
Track quality 99.9 %
Test CRC 3B08BE89
Copy CRC 3B08BE89
Track not present in AccurateRip database
Copy OK
Track 25
Filename D:\zzz\25 - A Single Rosehip Bursts In Praise.wav
Pre-gap length 0:00:05.00
Peak level 96.6 %
Extraction speed 10.1 X
Track quality 100.0 %
Test CRC 5C266677
Copy CRC 5C266677
Track not present in AccurateRip database
Copy OK
None of the tracks are present in the AccurateRip database
No errors occurred
End of status report
==== Log checksum 262BF03F1F3571FB6181B98E67D72828340D97683BFFFA59B817525F48891660 ====
 
Содержание индексной карты (.CUE)
REM GENRE Avantgarde
REM DATE 2004
REM DISCID 6E12B319
REM COMMENT "ExactAudioCopy v1.0b2"
PERFORMER "Steuart Liebig/Minim"
TITLE "Quicksilver"
FILE "01 - Mosaic 1.wav" WAVE
TRACK 01 AUDIO
TITLE "Mosaic 1"
PERFORMER "Steuart Liebig/Minim"
INDEX 01 00:00:00
TRACK 02 AUDIO
TITLE "Mosaic 2"
PERFORMER "Steuart Liebig/Minim"
INDEX 00 02:24:22
FILE "02 - Mosaic 2.wav" WAVE
INDEX 01 00:00:00
TRACK 03 AUDIO
TITLE "Mosaic 3"
PERFORMER "Steuart Liebig/Minim"
INDEX 00 03:14:57
FILE "03 - Mosaic 3.wav" WAVE
INDEX 01 00:00:00
TRACK 04 AUDIO
TITLE "Mosaic 4"
PERFORMER "Steuart Liebig/Minim"
INDEX 00 01:53:09
FILE "04 - Mosaic 4.wav" WAVE
INDEX 01 00:00:00
TRACK 05 AUDIO
TITLE "Mosaic 5"
PERFORMER "Steuart Liebig/Minim"
INDEX 00 02:13:64
FILE "05 - Mosaic 5.wav" WAVE
INDEX 01 00:00:00
TRACK 06 AUDIO
TITLE "Mosaic 6"
PERFORMER "Steuart Liebig/Minim"
INDEX 00 01:38:66
FILE "06 - Mosaic 6.wav" WAVE
INDEX 01 00:00:00
TRACK 07 AUDIO
TITLE "Mosaic 7"
PERFORMER "Steuart Liebig/Minim"
INDEX 00 02:52:23
FILE "07 - Mosaic 7.wav" WAVE
INDEX 01 00:00:00
TRACK 08 AUDIO
TITLE "Mosaic 8"
PERFORMER "Steuart Liebig/Minim"
INDEX 00 01:45:54
FILE "08 - Mosaic 8.wav" WAVE
INDEX 01 00:00:00
TRACK 09 AUDIO
TITLE "Mosaic 9"
PERFORMER "Steuart Liebig/Minim"
INDEX 00 02:19:63
FILE "09 - Mosaic 9.wav" WAVE
INDEX 01 00:00:00
TRACK 10 AUDIO
TITLE "Mosaic 10"
PERFORMER "Steuart Liebig/Minim"
INDEX 00 02:07:53
FILE "10 - Mosaic 10.wav" WAVE
INDEX 01 00:00:00
TRACK 11 AUDIO
TITLE "Mosaic 11"
PERFORMER "Steuart Liebig/Minim"
INDEX 00 01:54:15
FILE "11 - Mosaic 11.wav" WAVE
INDEX 01 00:00:00
TRACK 12 AUDIO
TITLE "Mosaic 12"
PERFORMER "Steuart Liebig/Minim"
INDEX 00 02:39:52
FILE "12 - Mosaic 12.wav" WAVE
INDEX 01 00:00:00
TRACK 13 AUDIO
TITLE "Mosaic 13"
PERFORMER "Steuart Liebig/Minim"
INDEX 00 03:49:63
FILE "13 - Mosaic 13.wav" WAVE
INDEX 01 00:00:00
TRACK 14 AUDIO
TITLE "Mosaic 14"
PERFORMER "Steuart Liebig/Minim"
INDEX 00 02:14:66
FILE "14 - Mosaic 14.wav" WAVE
INDEX 01 00:00:00
TRACK 15 AUDIO
TITLE "Mosaic 15"
PERFORMER "Steuart Liebig/Minim"
INDEX 00 03:00:12
FILE "15 - Mosaic 15.wav" WAVE
INDEX 01 00:00:00
TRACK 16 AUDIO
TITLE "Mosaic 16"
PERFORMER "Steuart Liebig/Minim"
INDEX 00 01:58:48
FILE "16 - Mosaic 16.wav" WAVE
INDEX 01 00:00:00
TRACK 17 AUDIO
TITLE "Mosaic 17"
PERFORMER "Steuart Liebig/Minim"
INDEX 00 01:58:12
FILE "17 - Mosaic 17.wav" WAVE
INDEX 01 00:00:00
TRACK 18 AUDIO
TITLE "Mosaic 18"
PERFORMER "Steuart Liebig/Minim"
INDEX 00 01:51:72
FILE "18 - Mosaic 18.wav" WAVE
INDEX 01 00:00:00
TRACK 19 AUDIO
TITLE "Mosaic 19"
PERFORMER "Steuart Liebig/Minim"
INDEX 00 02:10:39
FILE "19 - Mosaic 19.wav" WAVE
INDEX 01 00:00:00
TRACK 20 AUDIO
TITLE "Mosaic 20"
PERFORMER "Steuart Liebig/Minim"
INDEX 00 01:51:43
FILE "20 - Mosaic 20.wav" WAVE
INDEX 01 00:00:00
TRACK 21 AUDIO
TITLE "Mosaic 21"
PERFORMER "Steuart Liebig/Minim"
INDEX 00 00:58:44
FILE "21 - Mosaic 21.wav" WAVE
INDEX 01 00:00:00
TRACK 22 AUDIO
TITLE "Mosaic 22"
PERFORMER "Steuart Liebig/Minim"
INDEX 00 01:35:21
FILE "22 - Mosaic 22.wav" WAVE
INDEX 01 00:00:00
TRACK 23 AUDIO
TITLE "Mosaic 23"
PERFORMER "Steuart Liebig/Minim"
INDEX 00 01:14:55
FILE "23 - Mosaic 23.wav" WAVE
INDEX 01 00:00:00
TRACK 24 AUDIO
TITLE "Chrysanthemum"
PERFORMER "Steuart Liebig/Minim"
INDEX 00 02:41:24
FILE "24 - Chrysanthemum.wav" WAVE
INDEX 01 00:00:00
TRACK 25 AUDIO
TITLE "A Single Rosehip Bursts In Praise"
PERFORMER "Steuart Liebig/Minim"
INDEX 00 15:37:40
FILE "25 - A Single Rosehip Bursts In Praise.wav" WAVE
INDEX 01 00:00:00
Доп. информация:
 
Album Info, AMG Review
Recorded April 2002
Mixed June and October 2003, and March and July 2004
all at Newzone Studios, Mar Vista, California
There is something slightly uncomfortable about Quicksilver and it has to do with the fact that it basically consists of contemporary chamber music trying to break out of the box but not quite making it. A very talented improviser and jazzman with a ferocious electric bass playing, Steuart Liebig attempts to renovate the chamber-quartet format. The quartet consists of Ellen Burr on flutes, Jeff Gauthier on (electric) violin, Jeanette Kangas on percussion, and Liebig on electric contrabass guitars. If Gauthier's playing remains mostly anchored into the concert violin tradition, despite the amplification, Liebig's is strongly influenced by jazz and rock techniques. Sound-wise, the result is a four-legged beast attempting to walk straight while one leg is constantly going sideways. The other players, all very talented (Burr's phrasing is a delight), don't share the wildness and "out" quality of Liebig's approach. And this is also reflected in the bassist's writing. The 52-minute, 23-part suite "Mosaic" is a hodgepodge of conventional contemporary quartet motives and avant-jazzrock licks. Liebig is good at developing melodic and harmonic ideas within short durations and the work as a whole displays good cohesion, elegance and flair, but it rests between two chairs. It makes for a challenging yet pleasant listen, but one comes out of it with the feeling that Liebig could have gone much further (Tim Brady, for instance, has been more radical -- and artistically successful -- at integrating the electric guitar to chamber music contexts). "Chrysanthemum" sounds even more awkward and, given the 80-minute duration of the album, could have been left out altogether. The last piece, "A Single Rosehip Bursts in Praise" is a different story. Here, Liebig and his group have shaken off much more of the contemporary ethos. Kangas' percussion work (mostly choked cymbals) is insistent and odd; Burr breaks off of her poise to blow a compelling Kirk-esque solo; and at last Liebig finds a balance between the seriousness of the quartet setting (four musicians sitting down in a circle) and the raucous edge his writing was aspiring to all along. (allmusic.com)
 
Состав
Bass Guitar [C, Eb, Prepared Contra] – Steuart Liebig
Drums [Drumset], Percussion, Vibraphone – Jeanette Kangas
Flute, Piccolo Flute, Flute [Alto] – Ellen Burr
Violin [Electric 4- And 5-string] – Jeff Gauthier
Any questions -> support@pro-jazz.com. По всем вопросам пишите -> support@pro-jazz.com
05:00
156
Нет комментариев. Ваш будет первым!