Вы используете незарегистрированную версию компонента "Вкладки"!

Поиск

(Avant-Garde Jazz, Modern Composition) [CD] Elliott Sharp & Orchestra Carbon - Radiolaria - 2002, FLAC (tracks+.cue), lossless

(Avant-Garde Jazz, Modern Composition) [CD] Elliott Sharp & Orchestra Carbon - Radiolaria - 2002, FLAC (tracks+.cue), lossless
Треклист:
Elliott Sharp & Orchestra Carbon / Radiolaria
Жанр: Avant-Garde Jazz, Modern Composition
Носитель: CD
Страна-производитель диска: US
Год издания: 2002
Издатель (лейбл): zOaR Records
Номер по каталогу: zOaR 022
Страна: US
Аудиокодек: FLAC (*.flac)
Тип рипа: tracks+.cue
Битрейт аудио: lossless
Продолжительность: 48:43
Источник (релизер): свой фирменный диск
Наличие сканов в содержимом раздачи:
Треклист:
1. untitled
2. untitled
3. untitled
4. untitled
5. untitled
6. untitled
7. untitled
 
Лог создания рипа
Exact Audio Copy V1.0 beta 3 from 29. August 2011
EAC extraction logfile from 17. February 2014, 19:35
Elliott Sharp & Orchestra Carbon / Radiolaria
Used drive : PIONEER DVD-RW DVR-115D Adapter: 0 ID: 0
Read mode : Secure
Utilize accurate stream : Yes
Defeat audio cache : Yes
Make use of C2 pointers : No
Read offset correction : 48
Overread into Lead-In and Lead-Out : No
Fill up missing offset samples with silence : Yes
Delete leading and trailing silent blocks : No
Null samples used in CRC calculations : Yes
Used interface : Installed external ASPI interface
Gap handling : Appended to previous track
Used output format : User Defined Encoder
Selected bitrate : 896 kBit/s
Quality : High
Add ID3 tag : No
Command line compressor : C:\Program Files\Exact Audio Copy\FLAC\FLAC.EXE
Additional command line options : -6 -V -T "ARTIST=%artist%" -T "TITLE=%title%" -T "ALBUM=%albumtitle%" -T "DATE=%year%" -T "TRACKNUMBER=%tracknr%" -T "GENRE=%genre%" -T "COMMENT=%comment%" -T "BAND=%albuminterpret%" -T "COMPOSER=%composer%" %haslyrics%--tag-from-file=LYRICS="%lyricsfile%"%haslyrics% -T "DISCNUMBER=%cdnumber%" -T "TOTALDISCS=%totalcds%" -T "TOTALTRACKS=%numtracks%" %hascover%--picture="%coverfile%"%hascover% %source% -o %dest%
TOC of the extracted CD
Track | Start | Length | Start sector | End sector
---------------------------------------------------------
1 | 0:00.00 | 7:49.45 | 0 | 35219
2 | 7:49.45 | 2:37.15 | 35220 | 47009
3 | 10:26.60 | 4:06.05 | 47010 | 65464
4 | 14:32.65 | 6:13.50 | 65465 | 93489
5 | 20:46.40 | 4:39.64 | 93490 | 114478
6 | 25:26.29 | 2:34.38 | 114479 | 126066
7 | 28:00.67 | 20:42.47 | 126067 | 219263
Track 1
Filename D:\zzz\01 - Untitled.wav
Pre-gap length 0:00:02.00
Peak level 95.2 %
Extraction speed 4.8 X
Track quality 100.0 %
Test CRC 78500D9C
Copy CRC 78500D9C
Track not present in AccurateRip database
Copy OK
Track 2
Filename D:\zzz\02 - Untitled.wav
Peak level 35.5 %
Extraction speed 4.7 X
Track quality 100.0 %
Test CRC 8E6C1E11
Copy CRC 8E6C1E11
Track not present in AccurateRip database
Copy OK
Track 3
Filename D:\zzz\03 - Untitled.wav
Peak level 62.5 %
Extraction speed 5.3 X
Track quality 100.0 %
Test CRC 75485735
Copy CRC 75485735
Track not present in AccurateRip database
Copy OK
Track 4
Filename D:\zzz\04 - Untitled.wav
Peak level 84.7 %
Extraction speed 6.0 X
Track quality 100.0 %
Test CRC 74D80E59
Copy CRC 74D80E59
Track not present in AccurateRip database
Copy OK
Track 5
Filename D:\zzz\05 - Untitled.wav
Peak level 78.6 %
Extraction speed 5.6 X
Track quality 99.9 %
Test CRC 5531BCDD
Copy CRC 5531BCDD
Track not present in AccurateRip database
Copy OK
Track 6
Filename D:\zzz\06 - Untitled.wav
Peak level 19.7 %
Extraction speed 5.9 X
Track quality 100.0 %
Test CRC 78265EAF
Copy CRC 78265EAF
Track not present in AccurateRip database
Copy OK
Track 7
Filename D:\zzz\07 - Untitled.wav
Peak level 88.4 %
Extraction speed 7.9 X
Track quality 100.0 %
Test CRC 5526D8CD
Copy CRC 5526D8CD
Track not present in AccurateRip database
Copy OK
None of the tracks are present in the AccurateRip database
No errors occurred
End of status report
==== Log checksum 01FB1EA64479F1F50F60094929F92EA04F0B15D8BF4D1D300E85BCCA737C10A7 ====
 
Содержание индексной карты (.CUE)
REM GENRE Avant-Garde
REM DATE 2002
REM DISCID 610B6B07
REM COMMENT "ExactAudioCopy v1.0b3"
PERFORMER "Elliott Sharp & Orchestra Carbon"
TITLE "Radiolaria"
FILE "01 - Untitled.wav" WAVE
TRACK 01 AUDIO
TITLE "Untitled"
PERFORMER "Elliott Sharp & Orchestra Carbon"
INDEX 01 00:00:00
FILE "02 - Untitled.wav" WAVE
TRACK 02 AUDIO
TITLE "Untitled"
PERFORMER "Elliott Sharp & Orchestra Carbon"
INDEX 01 00:00:00
FILE "03 - Untitled.wav" WAVE
TRACK 03 AUDIO
TITLE "Untitled"
PERFORMER "Elliott Sharp & Orchestra Carbon"
INDEX 01 00:00:00
FILE "04 - Untitled.wav" WAVE
TRACK 04 AUDIO
TITLE "Untitled"
PERFORMER "Elliott Sharp & Orchestra Carbon"
INDEX 01 00:00:00
FILE "05 - Untitled.wav" WAVE
TRACK 05 AUDIO
TITLE "Untitled"
PERFORMER "Elliott Sharp & Orchestra Carbon"
INDEX 01 00:00:00
FILE "06 - Untitled.wav" WAVE
TRACK 06 AUDIO
TITLE "Untitled"
PERFORMER "Elliott Sharp & Orchestra Carbon"
INDEX 01 00:00:00
FILE "07 - Untitled.wav" WAVE
TRACK 07 AUDIO
TITLE "Untitled"
PERFORMER "Elliott Sharp & Orchestra Carbon"
INDEX 01 00:00:00
 
Лог проверки качества
d:\>d:\aucdtect -d/-m0 d:\zzz\*.wav
auCDtect: CD records authenticity detector, version 0.8.2
Copyright (c) 2004 Oleg Berngardt. All rights reserved.
Copyright (c) 2004 Alexander Djourik. All rights reserved.
------------------------------------------------------------
Processing file: [01. Untitled.wav]
------------------------------------------------------------
This track looks like CDDA with probability 100%
------------------------------------------------------------
Processing file: [02. Untitled.wav]
------------------------------------------------------------
This track looks like CDDA with probability 99%
------------------------------------------------------------
Processing file: [03. Untitled.wav]
------------------------------------------------------------
This track looks like CDDA with probability 99%
------------------------------------------------------------
Processing file: [04. Untitled.wav]
------------------------------------------------------------
This track looks like CDDA with probability 100%
------------------------------------------------------------
Processing file: [05. Untitled.wav]
------------------------------------------------------------
This track looks like CDDA with probability 100%
------------------------------------------------------------
Processing file: [06. Untitled.wav]
------------------------------------------------------------
This track looks like CDDA with probability 54%
------------------------------------------------------------
Processing file: [07. Untitled.wav]
------------------------------------------------------------
This track looks like MPEG with probability 90%
------------------------------------------------------------
Final Conclusion:
------------------------------------------------------------
These tracks looks like CDDA with probability 100%
Доп. информация:
 
Album Info
Recorded live on March 31, 2001 by Bruce Gallanter @ Tonic - New York City
Digital remix/mastering at Studio zOaR
Radiolaria was composed for the Commissioning USA Program of Meet the Composer and premiered on December 9, 1999 at the Whitney Museum at 42 Street, NYC
Illustrations by Ernst Haeckel from "Art Forms in Nature"
Design by Janene Higgins
Thanks to: Sam Furnace, Frank London, J.D. Parran, Taylor Ho Bynum, Debra Singer, Bruce, Meet the Composer, Location One, Chris Rael, Lennart Stahle, Luke, Tonic & Janene,
 
Состав
Andy Laster: alto sax
Brian McWhorter: trumpet
David Weinstein: sampler
Eric Shanfield: flugelhorn
Evan Spritzer: bass clarinet
Jim Pugliese: percussion
Julie Kalu: bass trombone
Luke Dubois: MAX/MSP programmer
Ned Rothenberg: alto sax
Steve Swell: trombone
Tim Smith: bass clarinet
Zeena Parkins: sampler
E#: soprano sax, Powerbook
Any questions -> support@pro-jazz.com. По всем вопросам пишите -> support@pro-jazz.com
23:53
158
Нет комментариев. Ваш будет первым!