Вы используете незарегистрированную версию компонента "Вкладки"!

Поиск

(Avant-Garde Jazz, Modal Jazz) Pharoah Sanders - The Impulse Story - 2006, FLAC (tracks+.cue), lossless

Треклист:
Pharoah Sanders / The Impulse Story

Жанр: Avant-Garde Jazz, Modal Jazz
Страна-производитель диска: Germany
Год издания: 2006
Издатель (лейбл): Verve Music Group
Номер по каталогу: 0602498551158
Страна: USA
Аудиокодек: FLAC (*.flac)
Тип рипа: tracks+.cue
Битрейт аудио: lossless
Продолжительность: 01:43:00
Источник (релизер): duppyB
Наличие сканов в содержимом раздачи: да
Треклист:
1 Upper And Lower Egypt 16:16 (Sanders)
Pharoah Sanders (tenor saxophone, piccolo, percussion, vocal); Dave Burrell (piano); Sonny Sharrock (electric guitar); Henry Grimes (bass); Nat Bettis (percussion); Roger Blank (drums).
2 The Creator Has A Master Plan 32:45 (Sanders/Thomas)
Pharoah Sanders (tenor saxophone); Julius Watkins (French horn); James Spaulding (flute); Lonnie Listen Smith (piano); Richard Davis, Reggie Workman (bass); Nat Bettis (percussion); Billy Hart (drums); Leon Thomas (vocal, percussion).
3 Astral Traveling 5:48 (Lonnie Liston Smith)
Pharoah Sanders (soprano saxophone, percussion); Michael White (violin); Lonnie Liston Smith (electric piano); Cecil McBee (bass); Clifford Jarvis (drums).
4 Spiritual Blessing 5:4 (Sanders)
Pharoah Sanders (soprano saxophone); Joe Bonner (harmonium); Calvin Hill (tamboura); Lawrence Killian (bell tree); John Blue, Jimmy Hopps (percussion); Michael Carvin (drums).
 
Лог создания рипа
Exact Audio Copy V1.0 beta 3 from 29. August 2011
EAC extraction logfile from 10. April 2012, 8:55
Pharoah Sanders / The Impulse Story
Used drive : ASUS DRW-24B3ST Adapter: 2 ID: 1
Read mode : Secure
Utilize accurate stream : Yes
Defeat audio cache : Yes
Make use of C2 pointers : No
Read offset correction : 6
Overread into Lead-In and Lead-Out : No
Fill up missing offset samples with silence : Yes
Delete leading and trailing silent blocks : No
Null samples used in CRC calculations : Yes
Used interface : Native Win32 interface for Win NT & 2000
Gap handling : Appended to previous track
Used output format : User Defined Encoder
Selected bitrate : 128 kBit/s
Quality : High
Add ID3 tag : No
Command line compressor : C:\Program Files\Exact Audio Copy\Flac\flac.exe
Additional command line options : -V -8 -T "Date=%year%" -T "Genre=%genre%" %source%
TOC of the extracted CD
Track | Start | Length | Start sector | End sector
---------------------------------------------------------
1 | 0:00.00 | 16:21.27 | 0 | 73601
2 | 16:21.27 | 32:48.39 | 73602 | 221240
3 | 49:09.66 | 5:50.71 | 221241 | 247561
4 | 55:00.62 | 5:40.68 | 247562 | 273129
Track 1
Filename E:\Pharoah Sanders - The Impulse Story (2006)\01. Upper Egypt and Lower Egypt.wav
Pre-gap length 0:00:02.00
Peak level 100.0 %
Extraction speed 4.3 X
Track quality 99.9 %
Test CRC 58953B2F
Copy CRC 58953B2F
Accurately ripped (confidence 5) [A91CB8ED] (AR v1)
Copy OK
Track 2
Filename E:\Pharoah Sanders - The Impulse Story (2006)\02. The Creator Has a Master Plan.wav
Pre-gap length 0:00:02.61
Peak level 81.9 %
Extraction speed 6.5 X
Track quality 100.0 %
Test CRC 4E9DDD68
Copy CRC 4E9DDD68
Accurately ripped (confidence 5) [2A72F07F] (AR v1)
Copy OK
Track 3
Filename E:\Pharoah Sanders - The Impulse Story (2006)\03. Astral Traveling.wav
Pre-gap length 0:00:02.62
Peak level 80.1 %
Extraction speed 6.0 X
Track quality 99.9 %
Test CRC 5DB0FD4D
Copy CRC 5DB0FD4D
Accurately ripped (confidence 5) [C9ABC784] (AR v1)
Copy OK
Track 4
Filename E:\Pharoah Sanders - The Impulse Story (2006)\04. Spiritual Blessing.wav
Pre-gap length 0:00:02.62
Peak level 82.6 %
Extraction speed 7.4 X
Track quality 100.0 %
Test CRC 302EB9FF
Copy CRC 302EB9FF
Accurately ripped (confidence 4) [210A4D06] (AR v1)
Copy OK
All tracks accurately ripped
No errors occurred
End of status report
==== Log checksum 1786A2C0E9F24168AD76A524F16C0BE1C569CDE1F97E20525FDE86057BBA0F7F ====
 
Содержание индексной карты (.CUE)
REM GENRE "Progressive Jazz"
REM DATE 2006
REM DISCID 2F0E3904
REM COMMENT "ExactAudioCopy v1.0b3"
CATALOG 0602498551158
PERFORMER "Pharoah Sanders"
TITLE "The Impulse Story"
FILE "01. Upper Egypt and Lower Egypt.wav" WAVE
TRACK 01 AUDIO
TITLE "Upper Egypt and Lower Egypt"
PERFORMER "Pharoah Sanders"
ISRC USMC16790673
INDEX 01 00:00:00
TRACK 02 AUDIO
TITLE "The Creator Has a Master Plan"
PERFORMER "Pharoah Sanders"
ISRC USMC10001802
INDEX 00 16:18:41
FILE "02. The Creator Has a Master Plan.wav" WAVE
INDEX 01 00:00:00
TRACK 03 AUDIO
TITLE "Astral Traveling"
PERFORMER "Pharoah Sanders"
ISRC USMC17152669
INDEX 00 32:45:52
FILE "03. Astral Traveling.wav" WAVE
INDEX 01 00:00:00
TRACK 04 AUDIO
TITLE "Spiritual Blessing"
PERFORMER "Pharoah Sanders"
ISRC USUM70501866
INDEX 00 05:48:09
FILE "04. Spiritual Blessing.wav" WAVE
INDEX 01 00:00:00
 
Об альбоме (сборнике)
Any questions -> support@pro-jazz.com. По всем вопросам пишите -> support@pro-jazz.com
23:49
173
Нет комментариев. Ваш будет первым!