Вы используете незарегистрированную версию компонента "Вкладки"!

Поиск

(Avant-garde jazz) Mark Helias' Open Loose - New School - 2001, APE (image+.cue), lossless

Треклист:
Mark Helias' Open Loose - New School
Жанр: Avant-garde jazz
Год выпуска диска: 2001
Производитель диска: Germany (ENJA)
Аудио кодек: APE
Тип рипа: image+.cue
Log:
 
скрытый текст
Exact Audio Copy V0.99 prebeta 4 from 23. January 2008
Отчёт EAC об извлечении, выполненном 31. октября 2009, 6:53
Mark Helias / New School
Дисковод: Optiarc DVD RW AD-7200S Adapter: 4 ID: 0
Режим чтения : Достоверность
Использование точного потока : Да
Отключение кэша аудио : Да
Использование указателей C2 : Нет
Коррекция смещения при чтении : 48
Способность читать области Lead-in и Lead-out : Нет
Заполнение пропущенных сэмплов тишиной : Да
Удаление блоков с тишиной в начале и конце : Нет
При вычислениях CRC использовались нулевые сэмплы : Да
Интерфейс : Встроенный Win32-интерфейс для Win NT/2000
Выходной формат : Внутренние WAV-операции
Формат сэмплов : 44.100 Гц; 16 бит; стерео
TOC извлечённого CD
Трек | Старт | Длительность | Начальный сектор | Конечный сектор
---------------------------------------------------------------------
1 | 0:00.00 | 3:39.42 | 0 | 16466
2 | 3:39.42 | 6:48.43 | 16467 | 47109
3 | 10:28.10 | 7:14.04 | 47110 | 79663
4 | 17:42.14 | 10:41.33 | 79664 | 127771
5 | 28:23.47 | 8:53.11 | 127772 | 167757
6 | 37:16.58 | 6:41.06 | 167758 | 197838
7 | 43:57.64 | 4:51.48 | 197839 | 219711
Характеристики диапазона извлечения и сообщения об ошибках
Выбранный диапазон
Имя файла D:\Music internet\Раздачи\Mark Helias - New School\Mark Helias - New School.wav
Пиковый уровень 98.8 %
Качество диапазона 99.9 %
CRC копии 4087C016
Копирование... OK
Ошибок не произошло
AccurateRip: сводка
Трек 1 точное извлечение (доверие 2) [9D189542]
Трек 2 точное извлечение (доверие 2) [006ECE81]
Трек 3 точное извлечение (доверие 2) [99A93F3F]
Трек 4 точное извлечение (доверие 2) [3A1B317D]
Трек 5 точное извлечение (доверие 2) [CC76A935]
Трек 6 точное извлечение (доверие 2) [23448318]
Трек 7 точное извлечение (доверие 2) [7BA1C911]
Все треки извлечены точно
Конец отчёта
Трэклист:
1. - Molecule (3:39)
2. - Startle (6:48)
3. - Dominoes (7:14)
4. - Mapa (10:41)
5. - Gentle Ben (8:53)
6. - Pick And Roll (6:41)
7. - Question Time (Knitting Or Quitting, Part 5) (4:51)
Доп. информация: Mark Helias - bass
Tom Rainey - drums
Tony Malaby - tenor sax
Any questions -> support@pro-jazz.com. По всем вопросам пишите -> support@pro-jazz.com
16:01
225
Нет комментариев. Ваш будет первым!