Поиск

(Avant-Garde Jazz,Latin Jazz,Free Improvisation) [CD] Age Garcia trio - Alabastro - 2002, FLAC (image+.cue), lossless

(Avant-Garde Jazz,Latin Jazz,Free Improvisation) [CD] Age Garcia trio - Alabastro - 2002, FLAC (image+.cue), lossless
Треклист:
Age Garcia trio / Alabastro
Жанр: Avant-Garde Jazz, Latin Jazz, Free Improvisation
Носитель: CD
Страна-производитель диска (релиза): U.S.A
Год издания: 2002
Издатель (лейбл): Golden Dome Records
Номер по каталогу: GDR2549
Страна исполнителя (группы): U.S.A
Аудиокодек: FLAC (*.flac)
Тип рипа: image+.cue
Битрейт аудио: lossless
Продолжительность: 39:02
Источник (релизер): собственный рип
Наличие сканов в содержимом раздачи: нет
Треклист:
01. Little Bells for Jane - 3:22
02. Nardo Purdo - 3:21
03. Alabastro - 4:42
04. Presence - 3:37
05. Creating Wings - 3:32
06. So Far - 3:39
07. Mirra - 4:03
08. Piano De Barro - 4:57
09. Alegre - 4:30
10. Party - 3:21
 
Лог создания рипа
Exact Audio Copy V1.0 beta 6 from 9. April 2015
EAC extraction logfile from 11. June 2015, 0:59
Age Garcia Trio / Alabastro
Used drive : SlimtypeDVD A DA8A5SH Adapter: 1 ID: 0
Read mode : Secure
Utilize accurate stream : Yes
Defeat audio cache : Yes
Make use of C2 pointers : No
Read offset correction : 6
Overread into Lead-In and Lead-Out : No
Fill up missing offset samples with silence : Yes
Delete leading and trailing silent blocks : No
Null samples used in CRC calculations : Yes
Used interface : Native Win32 interface for Win NT & 2000
Used output format : User Defined Encoder
Selected bitrate : 896 kBit/s
Quality : High
Add ID3 tag : Yes
Command line compressor : C:\Program Files (x86)\Exact Audio Copy\Flac\flac.exe
Additional command line options : -V -8 %source%
TOC of the extracted CD
Track | Start | Length | Start sector | End sector
---------------------------------------------------------
1 | 0:00.00 | 3:22.05 | 0 | 15154
2 | 3:22.05 | 3:20.70 | 15155 | 30224
3 | 6:43.00 | 4:41.42 | 30225 | 51341
4 | 11:24.42 | 3:37.30 | 51342 | 67646
5 | 15:01.72 | 3:31.73 | 67647 | 83544
6 | 18:33.70 | 3:38.70 | 83545 | 99964
7 | 22:12.65 | 4:02.47 | 99965 | 118161
8 | 26:15.37 | 4:56.63 | 118162 | 140424
9 | 31:12.25 | 4:29.52 | 140425 | 160651
10 | 35:42.02 | 3:20.33 | 160652 | 175684
Range status and errors
Selected range
Filename D:\#Музыка\Age Garcia Trio-Alabastro\Age Garcia Trio - Alabastro.wav
Peak level 99.8 %
Extraction speed 4.2 X
Range quality 100.0 %
Test CRC AA05AA69
Copy CRC AA05AA69
Copy OK
No errors occurred
End of status report
---- CUETools DB Plugin V2.1.6
[CTDB TOCID: .H.AmL0RaQfH_aHxXawXa1tvb28-] disk not present in database
Submit result: .H.AmL0RaQfH_aHxXawXa1tvb28- has been uploaded
==== Log checksum 81056CA3C1886AAA194B900EBBBD667E92387E80402096D2FDF220847E1AA569 ====
 
Лог проверки качества
-----------------------
DON'T MODIFY THIS FILE
-----------------------
PERFORMER: auCDtect Task Manager, ver. 1.6.0 RC1 build 1.6.0.1
Copyright (c) 2008-2010 y-soft. All rights reserved
http://y-soft.org
ANALYZER: auCDtect: CD records authenticity detector, version 0.8.2
Copyright (c) 2004 Oleg Berngardt. All rights reserved.
Copyright (c) 2004 Alexander Djourik. All rights reserved.
FILE: Age Garcia Trio - Alabastro.flac
Size: 224806122 Hash: AED3B27AA32694BA4915A91EA4EDB922 Accuracy: -m0
Conclusion: CDDA 100%
Signature: C569C35956D5957EFCBAF9836184A22E919C4FA4
 
Об исполнителе (группе)
Well established composer, performer and musical director in his native Brazil, Age Garcia blends improvisation and influences from artists such as Bill Evans and Tom Jobim, but is also a pianist who creates a mood all of his own.
The first album "GIRAL" composed with his friend Andre Togni, was the most important Garcia's work before "ALABASTRO".
In Europe Brazilian Pianist Age Garcia released the album "Alabastro", produced by Tom Harney for Golden Dome Records, USA, 2002.
Back to Brazil, 2005, Age made some sound tracks for theater plays and three important shows as Age Garcia TRIO.
Agenor Garcia is performing at STEINWAY & SONS galleries around the USA doing a Brazilian Jazz concert with an Art Exhibition of the renown Brazilian Photographer Jane Pini.
"While the moderate tempos and understated performance make this one easy to assign to the role of soundtrack for daily activities, Garcia has a gift for injecting subtle surprises into his compositions that will delight the attentive listener. The fluidity of his solo passages and a strong commitment to melody sometimes conceal some of the harmonic and rhythmic shifts he uses, but those are precisely the elements that carry this beyond the level of cocktail jazz and establish Garcia as a jazz talent in the lineage of Bill Evans and Keith Jarrett"... By Shaun Dale
 
Состав
Age Garcia - piano
David Wertman - bass
Neal Backman - drums/percussion
Aldo Ramon plays bass on ''Alegre''
По всем вопросам пишите личное сообщение пользователю M0p94ok.
18:19
169
Нет комментариев. Ваш будет первым!