Вы используете незарегистрированную версию компонента "Вкладки"!

Поиск

(Avant-garde Jazz) Kris Davis (Mat Maneri, Ingrid Laubrock, Trevor Dunn, Tom Rainey) - Capricorn Climber - 2013, FLAC (tracks+.cue), lossless

(Avant-garde Jazz) Kris Davis (Mat Maneri, Ingrid Laubrock, Trevor Dunn, Tom Rainey) - Capricorn Climber - 2013, FLAC (tracks+.cue), lossless
Треклист:
Kris Davis / Capricorn Climber
Жанр: Avant-garde Jazz
Страна-производитель диска: Portugal
Год издания: 2013
Издатель (лейбл): Clean Feed
Номер по каталогу: CF268CD
Аудиокодек: FLAC (*.flac)
Тип рипа: tracks+.cue
Битрейт аудио: lossless
Продолжительность: 60:17
Источник (релизер): whatcd / bounb
Наличие сканов в содержимом раздачи: нет
Треклист:
1 Too Tinkerbell
2 Pass The Magic Hat
3 Trevor's Luffa Complex
4 Capricorn Climber
5 Bottom Of A Well
6 Big Band Ball
7 Pi Is Irrational
8 Dreamers In A Daze
9 Too Tinkerbell Coda
 
Лог создания рипа
X Lossless Decoder version 20130407 (143.0)
XLD extraction logfile from 2013-05-01 21:30:23 +0400
Kris Davis, Mat Maneri, Ingrid Laubrock, Trevor Dunn, Tom Rainey / Capricorn Climber
Used drive : HL-DT-ST DVDRW GX30N (revision RP09)
Media type : Pressed CD
Ripper mode : XLD Secure Ripper
Disable audio cache : OK for the drive with a cache less than 1375KiB
Make use of C2 pointers : NO
Read offset correction : 6
Max retry count : 20
Gap status : Analyzed, Appended
TOC of the extracted CD
Track | Start | Length | Start sector | End sector
---------------------------------------------------------
1 | 00:00:00 | 05:30:37 | 0 | 24786
2 | 05:30:37 | 09:50:24 | 24787 | 69060
3 | 15:20:61 | 05:34:35 | 69061 | 94145
4 | 20:55:21 | 11:32:41 | 94146 | 146086
5 | 32:27:62 | 07:04:73 | 146087 | 177959
6 | 39:32:60 | 04:57:55 | 177960 | 200289
7 | 44:30:40 | 07:54:42 | 200290 | 235881
8 | 52:25:07 | 04:38:32 | 235882 | 256763
9 | 57:03:39 | 03:14:22 | 256764 | 271335
AccurateRip Summary
Disc not found in AccurateRip DB.
All Tracks
Album gain : -4.07 dB
Peak : 0.988831
Statistics
Read error : 0
Jitter error (maybe fixed) : 0
Retry sector count : 0
Damaged sector count : 0
Track 01
Filename : /Users/anch/Music/FLAC/Kris Davis, Mat Maneri, Ingrid Laubrock, Trevor Dunn, Tom Rainey - 2012 - Capricorn Climber [FLAC]/01 - Too Tinkerbell.flac
/Users/anch/Music/FLAC/Kris Davis, Mat Maneri, Ingrid Laubrock, Trevor Dunn, Tom Rainey - 2012 - Capricorn Climber [MP3 320]/01 - Too Tinkerbell.mp3
/Users/anch/Music/FLAC/Kris Davis, Mat Maneri, Ingrid Laubrock, Trevor Dunn, Tom Rainey - 2012 - Capricorn Climber [MP3 V0]/01 - Too Tinkerbell.mp3
Pre-gap length : 00:02:00
Track gain : -2.47 dB
Peak : 0.988739
CRC32 hash (test run) : 5D9E6132
CRC32 hash : 5D9E6132
CRC32 hash (skip zero) : 3ED9E7E7
AccurateRip v1 signature : C168A886
AccurateRip v2 signature : 76CE1D24
->Track not present in AccurateRip database.
Statistics
Read error : 0
Jitter error (maybe fixed) : 0
Retry sector count : 0
Damaged sector count : 0
Track 02
Filename : /Users/anch/Music/FLAC/Kris Davis, Mat Maneri, Ingrid Laubrock, Trevor Dunn, Tom Rainey - 2012 - Capricorn Climber [FLAC]/02 - Pass The Magic Hat.flac
/Users/anch/Music/FLAC/Kris Davis, Mat Maneri, Ingrid Laubrock, Trevor Dunn, Tom Rainey - 2012 - Capricorn Climber [MP3 320]/02 - Pass The Magic Hat.mp3
/Users/anch/Music/FLAC/Kris Davis, Mat Maneri, Ingrid Laubrock, Trevor Dunn, Tom Rainey - 2012 - Capricorn Climber [MP3 V0]/02 - Pass The Magic Hat.mp3
Pre-gap length : 00:00:38
Track gain : -4.38 dB
Peak : 0.988800
CRC32 hash (test run) : C72591A9
CRC32 hash : C72591A9
CRC32 hash (skip zero) : 132188FF
AccurateRip v1 signature : A819F473
AccurateRip v2 signature : 3D7A4A48
->Track not present in AccurateRip database.
Statistics
Read error : 0
Jitter error (maybe fixed) : 0
Retry sector count : 0
Damaged sector count : 0
Track 03
Filename : /Users/anch/Music/FLAC/Kris Davis, Mat Maneri, Ingrid Laubrock, Trevor Dunn, Tom Rainey - 2012 - Capricorn Climber [FLAC]/03 - Trevor's Luffa Complex.flac
/Users/anch/Music/FLAC/Kris Davis, Mat Maneri, Ingrid Laubrock, Trevor Dunn, Tom Rainey - 2012 - Capricorn Climber [MP3 320]/03 - Trevor's Luffa Complex.mp3
/Users/anch/Music/FLAC/Kris Davis, Mat Maneri, Ingrid Laubrock, Trevor Dunn, Tom Rainey - 2012 - Capricorn Climber [MP3 V0]/03 - Trevor's Luffa Complex.mp3
Pre-gap length : 00:00:47
Track gain : -5.36 dB
Peak : 0.988831
CRC32 hash (test run) : 8BEC3928
CRC32 hash : 8BEC3928
CRC32 hash (skip zero) : DF8D86CD
AccurateRip v1 signature : 7225B352
AccurateRip v2 signature : 4268D3D1
->Track not present in AccurateRip database.
Statistics
Read error : 0
Jitter error (maybe fixed) : 0
Retry sector count : 0
Damaged sector count : 0
Track 04
Filename : /Users/anch/Music/FLAC/Kris Davis, Mat Maneri, Ingrid Laubrock, Trevor Dunn, Tom Rainey - 2012 - Capricorn Climber [FLAC]/04 - Capricorn Climber.flac
/Users/anch/Music/FLAC/Kris Davis, Mat Maneri, Ingrid Laubrock, Trevor Dunn, Tom Rainey - 2012 - Capricorn Climber [MP3 320]/04 - Capricorn Climber.mp3
/Users/anch/Music/FLAC/Kris Davis, Mat Maneri, Ingrid Laubrock, Trevor Dunn, Tom Rainey - 2012 - Capricorn Climber [MP3 V0]/04 - Capricorn Climber.mp3
Pre-gap length : 00:00:64
Track gain : -4.20 dB
Peak : 0.988831
CRC32 hash (test run) : 774F89D4
CRC32 hash : 774F89D4
CRC32 hash (skip zero) : 07FED3F2
AccurateRip v1 signature : 3A345359
AccurateRip v2 signature : 17E19ED4
->Track not present in AccurateRip database.
Statistics
Read error : 0
Jitter error (maybe fixed) : 0
Retry sector count : 0
Damaged sector count : 0
Track 05
Filename : /Users/anch/Music/FLAC/Kris Davis, Mat Maneri, Ingrid Laubrock, Trevor Dunn, Tom Rainey - 2012 - Capricorn Climber [FLAC]/05 - Bottom Of A Well.flac
/Users/anch/Music/FLAC/Kris Davis, Mat Maneri, Ingrid Laubrock, Trevor Dunn, Tom Rainey - 2012 - Capricorn Climber [MP3 320]/05 - Bottom Of A Well.mp3
/Users/anch/Music/FLAC/Kris Davis, Mat Maneri, Ingrid Laubrock, Trevor Dunn, Tom Rainey - 2012 - Capricorn Climber [MP3 V0]/05 - Bottom Of A Well.mp3
Pre-gap length : 00:01:19
Track gain : -2.38 dB
Peak : 0.988556
CRC32 hash (test run) : 33443EB2
CRC32 hash : 33443EB2
CRC32 hash (skip zero) : 80D226CC
AccurateRip v1 signature : A8C75E66
AccurateRip v2 signature : 061BF8AE
->Track not present in AccurateRip database.
Statistics
Read error : 0
Jitter error (maybe fixed) : 0
Retry sector count : 0
Damaged sector count : 0
Track 06
Filename : /Users/anch/Music/FLAC/Kris Davis, Mat Maneri, Ingrid Laubrock, Trevor Dunn, Tom Rainey - 2012 - Capricorn Climber [FLAC]/06 - Big Band Ball.flac
/Users/anch/Music/FLAC/Kris Davis, Mat Maneri, Ingrid Laubrock, Trevor Dunn, Tom Rainey - 2012 - Capricorn Climber [MP3 320]/06 - Big Band Ball.mp3
/Users/anch/Music/FLAC/Kris Davis, Mat Maneri, Ingrid Laubrock, Trevor Dunn, Tom Rainey - 2012 - Capricorn Climber [MP3 V0]/06 - Big Band Ball.mp3
Pre-gap length : 00:01:74
Track gain : -2.93 dB
Peak : 0.988770
CRC32 hash (test run) : 664C1AE7
CRC32 hash : 664C1AE7
CRC32 hash (skip zero) : ADF475F5
AccurateRip v1 signature : 31D33236
AccurateRip v2 signature : 19EE80BD
->Track not present in AccurateRip database.
Statistics
Read error : 0
Jitter error (maybe fixed) : 0
Retry sector count : 0
Damaged sector count : 0
Track 07
Filename : /Users/anch/Music/FLAC/Kris Davis, Mat Maneri, Ingrid Laubrock, Trevor Dunn, Tom Rainey - 2012 - Capricorn Climber [FLAC]/07 - PI is Irrational.flac
/Users/anch/Music/FLAC/Kris Davis, Mat Maneri, Ingrid Laubrock, Trevor Dunn, Tom Rainey - 2012 - Capricorn Climber [MP3 320]/07 - PI is Irrational.mp3
/Users/anch/Music/FLAC/Kris Davis, Mat Maneri, Ingrid Laubrock, Trevor Dunn, Tom Rainey - 2012 - Capricorn Climber [MP3 V0]/07 - PI is Irrational.mp3
Pre-gap length : 00:00:36
Track gain : -3.22 dB
Peak : 0.988770
CRC32 hash (test run) : 8086BAEC
CRC32 hash : 8086BAEC
CRC32 hash (skip zero) : D0D8E207
AccurateRip v1 signature : 91F1EAF2
AccurateRip v2 signature : 0A0B9D8D
->Track not present in AccurateRip database.
Statistics
Read error : 0
Jitter error (maybe fixed) : 0
Retry sector count : 0
Damaged sector count : 0
Track 08
Filename : /Users/anch/Music/FLAC/Kris Davis, Mat Maneri, Ingrid Laubrock, Trevor Dunn, Tom Rainey - 2012 - Capricorn Climber [FLAC]/08 - Dreamers In A Daze.flac
/Users/anch/Music/FLAC/Kris Davis, Mat Maneri, Ingrid Laubrock, Trevor Dunn, Tom Rainey - 2012 - Capricorn Climber [MP3 320]/08 - Dreamers In A Daze.mp3
/Users/anch/Music/FLAC/Kris Davis, Mat Maneri, Ingrid Laubrock, Trevor Dunn, Tom Rainey - 2012 - Capricorn Climber [MP3 V0]/08 - Dreamers In A Daze.mp3
Pre-gap length : 00:00:13
Track gain : -5.54 dB
Peak : 0.988770
CRC32 hash (test run) : 32A101A3
CRC32 hash : 32A101A3
CRC32 hash (skip zero) : F1E307FF
AccurateRip v1 signature : A142B1BC
AccurateRip v2 signature : B38C903D
->Track not present in AccurateRip database.
Statistics
Read error : 0
Jitter error (maybe fixed) : 0
Retry sector count : 0
Damaged sector count : 0
Track 09
Filename : /Users/anch/Music/FLAC/Kris Davis, Mat Maneri, Ingrid Laubrock, Trevor Dunn, Tom Rainey - 2012 - Capricorn Climber [FLAC]/09 - Too Tinkerbell Coda.flac
/Users/anch/Music/FLAC/Kris Davis, Mat Maneri, Ingrid Laubrock, Trevor Dunn, Tom Rainey - 2012 - Capricorn Climber [MP3 320]/09 - Too Tinkerbell Coda.mp3
/Users/anch/Music/FLAC/Kris Davis, Mat Maneri, Ingrid Laubrock, Trevor Dunn, Tom Rainey - 2012 - Capricorn Climber [MP3 V0]/09 - Too Tinkerbell Coda.mp3
Pre-gap length : 00:00:03
Track gain : 0.50 dB
Peak : 0.988708
CRC32 hash (test run) : 2400E38A
CRC32 hash : 2400E38A
CRC32 hash (skip zero) : 84A43CAD
AccurateRip v1 signature : 78223B95
AccurateRip v2 signature : C8C4D2F5
->Track not present in AccurateRip database.
Statistics
Read error : 0
Jitter error (maybe fixed) : 0
Retry sector count : 0
Damaged sector count : 0
No errors occurred
End of status report
 
Содержание индексной карты (.CUE)
TITLE "Capricorn Climber"
PERFORMER "Kris Davis, Mat Maneri, Ingrid Laubrock, Trevor Dunn, Tom Rainey"
REM GENRE "Free Jazz"
REM DATE "2013"
REM DISCID 7B0E2109
REM REPLAYGAIN_ALBUM_GAIN -4.07 dB
REM REPLAYGAIN_ALBUM_PEAK 0.988831
FILE "01 - Too Tinkerbell.flac" WAVE
TRACK 01 AUDIO
TITLE "Too Tinkerbell"
PERFORMER "Kris Davis, Mat Maneri, Ingrid Laubrock, Trevor Dunn, Tom Rainey"
REM REPLAYGAIN_TRACK_GAIN -2.47 dB
REM REPLAYGAIN_TRACK_PEAK 0.988739
INDEX 01 00:00:00
TRACK 02 AUDIO
TITLE "Pass The Magic Hat"
PERFORMER "Kris Davis, Mat Maneri, Ingrid Laubrock, Trevor Dunn, Tom Rainey"
REM REPLAYGAIN_TRACK_GAIN -4.38 dB
REM REPLAYGAIN_TRACK_PEAK 0.988800
INDEX 00 05:29:74
FILE "02 - Pass The Magic Hat.flac" WAVE
INDEX 01 00:00:00
TRACK 03 AUDIO
TITLE "Trevor's Luffa Complex"
PERFORMER "Kris Davis, Mat Maneri, Ingrid Laubrock, Trevor Dunn, Tom Rainey"
REM REPLAYGAIN_TRACK_GAIN -5.36 dB
REM REPLAYGAIN_TRACK_PEAK 0.988831
INDEX 00 09:49:52
FILE "03 - Trevor's Luffa Complex.flac" WAVE
INDEX 01 00:00:00
TRACK 04 AUDIO
TITLE "Capricorn Climber"
PERFORMER "Kris Davis, Mat Maneri, Ingrid Laubrock, Trevor Dunn, Tom Rainey"
REM REPLAYGAIN_TRACK_GAIN -4.20 dB
REM REPLAYGAIN_TRACK_PEAK 0.988831
INDEX 00 05:33:46
FILE "04 - Capricorn Climber.flac" WAVE
INDEX 01 00:00:00
TRACK 05 AUDIO
TITLE "Bottom Of A Well"
PERFORMER "Kris Davis, Mat Maneri, Ingrid Laubrock, Trevor Dunn, Tom Rainey"
REM REPLAYGAIN_TRACK_GAIN -2.38 dB
REM REPLAYGAIN_TRACK_PEAK 0.988556
INDEX 00 11:31:22
FILE "05 - Bottom Of A Well.flac" WAVE
INDEX 01 00:00:00
TRACK 06 AUDIO
TITLE "Big Band Ball"
PERFORMER "Kris Davis, Mat Maneri, Ingrid Laubrock, Trevor Dunn, Tom Rainey"
REM REPLAYGAIN_TRACK_GAIN -2.93 dB
REM REPLAYGAIN_TRACK_PEAK 0.988770
INDEX 00 07:02:74
FILE "06 - Big Band Ball.flac" WAVE
INDEX 01 00:00:00
TRACK 07 AUDIO
TITLE "PI is Irrational"
PERFORMER "Kris Davis, Mat Maneri, Ingrid Laubrock, Trevor Dunn, Tom Rainey"
REM REPLAYGAIN_TRACK_GAIN -3.22 dB
REM REPLAYGAIN_TRACK_PEAK 0.988770
INDEX 00 04:57:19
FILE "07 - PI is Irrational.flac" WAVE
INDEX 01 00:00:00
TRACK 08 AUDIO
TITLE "Dreamers In A Daze"
PERFORMER "Kris Davis, Mat Maneri, Ingrid Laubrock, Trevor Dunn, Tom Rainey"
REM REPLAYGAIN_TRACK_GAIN -5.54 dB
REM REPLAYGAIN_TRACK_PEAK 0.988770
INDEX 00 07:54:29
FILE "08 - Dreamers In A Daze.flac" WAVE
INDEX 01 00:00:00
TRACK 09 AUDIO
TITLE "Too Tinkerbell Coda"
PERFORMER "Kris Davis, Mat Maneri, Ingrid Laubrock, Trevor Dunn, Tom Rainey"
REM REPLAYGAIN_TRACK_GAIN 0.50 dB
REM REPLAYGAIN_TRACK_PEAK 0.988708
INDEX 00 04:38:29
FILE "09 - Too Tinkerbell Coda.flac" WAVE
INDEX 01 00:00:00
 
Состав
Double Bass – Trevor Dunn
Drums, Glockenspiel – Tom Rainey
Piano, Producer – Kris Davis
Saxophone – Ingrid Laubrock
Viola – Mat Maneri
Any questions -> support@pro-jazz.com. По всем вопросам пишите -> support@pro-jazz.com
11:46
126
Нет комментариев. Ваш будет первым!