Вы используете незарегистрированную версию компонента "Вкладки"!

Поиск

(Avant-Garde Jazz) John Coltrane - The Unissued Seattle Broadcast {1965} - 2011, FLAC (tracks+.cue), lossless

(Avant-Garde Jazz) John Coltrane - The Unissued Seattle Broadcast {1965} - 2011, FLAC (tracks+.cue), lossless
Треклист:
•John Coltrane - The Unissued Seattle Broadcast {1965}•
Жанр: Avant-Garde Jazz
Год издания: 2011
Издатель (лейбл): Rare Live Recordings
Номер по каталогу: RLR88664
Аудиокодек: FLAC (*.flac)
Тип рипа: tracks+.cue
Битрейт аудио: lossless
Продолжительность: 01:08:52
Источник (релизер): ruskaval
Наличие сканов в содержимом раздачи: да
Треклист:
01. Announcement [00:28]
02. Untitled Original [29:53]
03. Afro Blue [18:30]
04. Lush Life [09:50]
05. My Favorite Things [Inc] [10:09]
 
Лог создания рипа
X Lossless Decoder version 20120908 (141.1)
XLD extraction logfile from 2012-09-18 22:51:19 -0400
John Coltrane / The Unissued Seattle Broadcast
Used drive : HL-DT-ST DVDRW GX30N (revision RP09)
Ripper mode : XLD Secure Ripper
Disable audio cache : OK for the drive with a cache less than 1375KiB
Make use of C2 pointers : NO
Read offset correction : 6
Max retry count : 100
Gap status : Analyzed, Appended
TOC of the extracted CD
Track | Start | Length | Start sector | End sector
---------------------------------------------------------
1 | 00:00:00 | 00:28:38 | 0 | 2137
2 | 00:28:38 | 29:53:06 | 2138 | 136618
3 | 30:21:44 | 18:30:45 | 136619 | 219913
4 | 48:52:14 | 09:50:38 | 219914 | 264201
5 | 58:42:52 | 10:09:61 | 264202 | 309937
AccurateRip Summary (DiscID: 000e3bcb-0044463c-33102405)
Track 01 : OK (v1, confidence 1/1)
Track 02 : OK (v1, confidence 1/1)
Track 03 : OK (v1, confidence 1/1)
Track 04 : OK (v1, confidence 1/1)
Track 05 : OK (v1, confidence 1/1)
->All tracks accurately ripped.
All Tracks
Album gain : -2.20 dB
Peak : 0.897797
Statistics
Read error : 0
Jitter error (maybe fixed) : 0
Retry sector count : 0
Damaged sector count : 0
Track 01
Filename : /Volumes/Kenny Parker/FLACs/John Coltrane - The Unissued Seattle Broadcast (1965) [FLAC]/01 Announcement.flac
Pre-gap length : 00:02:00
Track gain : 1.40 dB
Peak : 0.586090
CRC32 hash (test run) : E4BA011B
CRC32 hash : E4BA011B
CRC32 hash (skip zero) : C30AC56C
AccurateRip v1 signature : 546A5464
AccurateRip v2 signature : 132F3333
->Accurately ripped (v1, confidence 1/1)
Statistics
Read error : 0
Jitter error (maybe fixed) : 0
Retry sector count : 0
Damaged sector count : 0
Track 02
Filename : /Volumes/Kenny Parker/FLACs/John Coltrane - The Unissued Seattle Broadcast (1965) [FLAC]/02 Untitled Original.flac
Track gain : -1.50 dB
Peak : 0.794342
CRC32 hash (test run) : 034A9E3E
CRC32 hash : 034A9E3E
CRC32 hash (skip zero) : 963E18DD
AccurateRip v1 signature : 7F8CD6FB
AccurateRip v2 signature : 4F7EBACD
->Accurately ripped (v1, confidence 1/1)
Statistics
Read error : 0
Jitter error (maybe fixed) : 0
Retry sector count : 0
Damaged sector count : 0
Track 03
Filename : /Volumes/Kenny Parker/FLACs/John Coltrane - The Unissued Seattle Broadcast (1965) [FLAC]/03 Afro Blue.flac
Track gain : -1.46 dB
Peak : 0.897797
CRC32 hash (test run) : C306EE96
CRC32 hash : C306EE96
CRC32 hash (skip zero) : 4447BBC9
AccurateRip v1 signature : 0E7888A8
AccurateRip v2 signature : BF68FD32
->Accurately ripped (v1, confidence 1/1)
Statistics
Read error : 0
Jitter error (maybe fixed) : 0
Retry sector count : 0
Damaged sector count : 0
Track 04
Filename : /Volumes/Kenny Parker/FLACs/John Coltrane - The Unissued Seattle Broadcast (1965) [FLAC]/04 Lush Life.flac
Track gain : -4.02 dB
Peak : 0.886444
CRC32 hash (test run) : 3CBC7A03
CRC32 hash : 3CBC7A03
CRC32 hash (skip zero) : A9982AAA
AccurateRip v1 signature : EF9C113B
AccurateRip v2 signature : DC5B152C
->Accurately ripped (v1, confidence 1/1)
Statistics
Read error : 0
Jitter error (maybe fixed) : 0
Retry sector count : 0
Damaged sector count : 0
Track 05
Filename : /Volumes/Kenny Parker/FLACs/John Coltrane - The Unissued Seattle Broadcast (1965) [FLAC]/05 My Favorite Things [Inc].flac
Track gain : -2.48 dB
Peak : 0.834198
CRC32 hash (test run) : D0E685E5
CRC32 hash : D0E685E5
CRC32 hash (skip zero) : 864F2898
AccurateRip v1 signature : F098FE71
AccurateRip v2 signature : D497BFE5
->Accurately ripped (v1, confidence 1/1)
Statistics
Read error : 0
Jitter error (maybe fixed) : 0
Retry sector count : 0
Damaged sector count : 0
No errors occurred
End of status report
 
Содержание индексной карты (.CUE)
TITLE "The Unissued Seattle Broadcast"
PERFORMER "John Coltrane"
REM GENRE "Jazz"
REM DATE "1965"
REM DISCNUMBER 1
REM TOTALDISCS 1
REM DISCID 33102405
REM REPLAYGAIN_ALBUM_GAIN -2.20 dB
REM REPLAYGAIN_ALBUM_PEAK 0.897797
FILE "01 Announcement.flac" WAVE
TRACK 01 AUDIO
TITLE "Announcement"
SONGWRITER "John Coltrane"
REM REPLAYGAIN_TRACK_GAIN 1.40 dB
REM REPLAYGAIN_TRACK_PEAK 0.586090
INDEX 01 00:00:00
FILE "02 Untitled Original.flac" WAVE
TRACK 02 AUDIO
TITLE "Untitled Original"
SONGWRITER "John Coltrane"
REM REPLAYGAIN_TRACK_GAIN -1.50 dB
REM REPLAYGAIN_TRACK_PEAK 0.794342
INDEX 01 00:00:00
FILE "03 Afro Blue.flac" WAVE
TRACK 03 AUDIO
TITLE "Afro Blue"
SONGWRITER "John Coltrane"
REM REPLAYGAIN_TRACK_GAIN -1.46 dB
REM REPLAYGAIN_TRACK_PEAK 0.897797
INDEX 01 00:00:00
FILE "04 Lush Life.flac" WAVE
TRACK 04 AUDIO
TITLE "Lush Life"
SONGWRITER "John Coltrane"
REM REPLAYGAIN_TRACK_GAIN -4.02 dB
REM REPLAYGAIN_TRACK_PEAK 0.886444
INDEX 01 00:00:00
FILE "05 My Favorite Things [Inc].flac" WAVE
TRACK 05 AUDIO
TITLE "My Favorite Things [Inc]"
SONGWRITER "John Coltrane"
REM REPLAYGAIN_TRACK_GAIN -2.48 dB
REM REPLAYGAIN_TRACK_PEAK 0.834198
INDEX 01 00:00:00
 
Состав
Personnel: John Coltrane, soprano sax, tenor sax; Pharoah Sanders, tenor sax; Donald Garrett, bass clarinet, bass; McCoy Tyner, piano; Jimmy Garrison, bass; Elvin Jones, drums.
Any questions -> support@pro-jazz.com. По всем вопросам пишите -> support@pro-jazz.com
09:03
186
Нет комментариев. Ваш будет первым!