Вы используете незарегистрированную версию компонента "Вкладки"!

Поиск

(Avant-Garde Jazz) John Coltrane - Sun Ship: The Complete Session {2CD, Verve} - 2013, FLAC (tracks+.cue), lossless

(Avant-Garde Jazz) John Coltrane - Sun Ship: The Complete Session {2CD, Verve} - 2013, FLAC (tracks+.cue), lossless
Треклист:
♦ John Coltrane - Sun Ship: The Complete Session {2CD, Verve} ♦
Жанр: Avant-Garde Jazz
Страна-производитель диска: USA
Год издания: 2013
Издатель (лейбл): Impulse! / Verve / UMG
Номер по каталогу: B0018075-02
Аудиокодек: FLAC (*.flac)
Тип рипа: tracks+.cue
Битрейт аудио: lossless
Продолжительность: 01:47:20
Источник (релизер): ruskaval
Наличие сканов в содержимом раздачи: да
 
♦ CD1 (01:00:33)
Треклист:

01. Dearly Beloved - Take 1 & 2, Fales Start and Alternate Version [06:33]
02. Dearly Beloved - Take 3, Breakdown [01:24]
03. Dearly Beloved - Take 4, Complete Version [06:13]
04. Attaining - Take 1, Alternate Version [13:36]
05. Attaining - Take 2, Breakdown [01:02]
06. Attaining - Take 3, Complete Version [10:27]
07. Attaining - Take 4, Insert 1 [04:42]
08. Sun Ship - Take 1, Breakdown [00:58]
09. Sun Ship - Take 2, Complete Alternate Version [06:29]
10. Sun Ship - Take 3, Insert 1 [02:30]
11. Sun Ship - Take 4, Complete Version [06:33]
 
Лог создания рипа
Exact Audio Copy V1.0 beta 3 from 29. August 2011
EAC extraction logfile from 9. June 2013, 20:31
John Coltrane / Sun Ship. The Complete Session (CD1)
Used drive : ATAPI iHAS124 B Adapter: 4 ID: 0
Read mode : Secure
Utilize accurate stream : Yes
Defeat audio cache : Yes
Make use of C2 pointers : No
Read offset correction : 6
Overread into Lead-In and Lead-Out : No
Fill up missing offset samples with silence : Yes
Delete leading and trailing silent blocks : No
Null samples used in CRC calculations : Yes
Used interface : Native Win32 interface for Win NT & 2000
Gap handling : Appended to previous track
Used output format : User Defined Encoder
Selected bitrate : 1024 kBit/s
Quality : High
Add ID3 tag : No
Command line compressor : C:\Program Files (x86)\FLAC\flac.exe
Additional command line options : -8 -V -T "ARTIST=%artist%" -T "TITLE=%title%" -T "ALBUM=%albumtitle%" -T "DATE=%year%" -T "TRACKNUMBER=%tracknr%" -T "TOTALTRACKS=%numtracks%" -T "GENRE=%genre%" -T "ALBUMARTIST=%albumartist%" -T "ALBUM ARTIST=%albumartist%" -T "COMMENT=EAC Secure Mode, Test & Copy, AccurateRip, FLAC -8" %source%
TOC of the extracted CD
Track | Start | Length | Start sector | End sector
---------------------------------------------------------
1 | 0:00.00 | 6:33.58 | 0 | 29532
2 | 6:33.58 | 1:24.74 | 29533 | 35906
3 | 7:58.57 | 6:13.05 | 35907 | 63886
4 | 14:11.62 | 13:36.65 | 63887 | 125151
5 | 27:48.52 | 1:02.46 | 125152 | 129847
6 | 28:51.23 | 10:27.26 | 129848 | 176898
7 | 39:18.49 | 4:42.01 | 176899 | 198049
8 | 44:00.50 | 0:58.50 | 198050 | 202449
9 | 44:59.25 | 6:29.27 | 202450 | 231651
10 | 51:28.52 | 2:30.46 | 231652 | 242947
11 | 53:59.23 | 6:33.62 | 242948 | 272484
Track 1
Filename G:\John Coltrane - Sun Ship. The Complete Session (2013) [2CD] {Verve}\CD1\01 - Dearly Beloved - Take 1 & 2, Fales Start and Alternate Version.wav
Pre-gap length 0:00:02.00
Peak level 98.5 %
Extraction speed 4.2 X
Track quality 100.0 %
Test CRC 43860086
Copy CRC 43860086
Track not present in AccurateRip database
Copy OK
Track 2
Filename G:\John Coltrane - Sun Ship. The Complete Session (2013) [2CD] {Verve}\CD1\02 - Dearly Beloved - Take 3, Breakdown.wav
Peak level 97.9 %
Extraction speed 2.2 X
Track quality 99.8 %
Test CRC E2F22FA5
Copy CRC E2F22FA5
Track not present in AccurateRip database
Copy OK
Track 3
Filename G:\John Coltrane - Sun Ship. The Complete Session (2013) [2CD] {Verve}\CD1\03 - Dearly Beloved - Take 4, Complete Version.wav
Peak level 98.4 %
Extraction speed 4.9 X
Track quality 100.0 %
Test CRC 0C3D5E23
Copy CRC 0C3D5E23
Track not present in AccurateRip database
Copy OK
Track 4
Filename G:\John Coltrane - Sun Ship. The Complete Session (2013) [2CD] {Verve}\CD1\04 - Attaining - Take 1, Alternate Version.wav
Peak level 98.3 %
Extraction speed 5.9 X
Track quality 100.0 %
Test CRC 6E7E13AE
Copy CRC 6E7E13AE
Track not present in AccurateRip database
Copy OK
Track 5
Filename G:\John Coltrane - Sun Ship. The Complete Session (2013) [2CD] {Verve}\CD1\05 - Attaining - Take 2, Breakdown.wav
Peak level 75.4 %
Extraction speed 4.1 X
Track quality 100.0 %
Test CRC 2542124D
Copy CRC 2542124D
Track not present in AccurateRip database
Copy OK
Track 6
Filename G:\John Coltrane - Sun Ship. The Complete Session (2013) [2CD] {Verve}\CD1\06 - Attaining - Take 3, Complete Version.wav
Peak level 98.7 %
Extraction speed 6.8 X
Track quality 100.0 %
Test CRC 388CEC53
Copy CRC 388CEC53
Track not present in AccurateRip database
Copy OK
Track 7
Filename G:\John Coltrane - Sun Ship. The Complete Session (2013) [2CD] {Verve}\CD1\07 - Attaining - Take 4, Insert 1.wav
Peak level 98.3 %
Extraction speed 6.7 X
Track quality 100.0 %
Test CRC 1D029E73
Copy CRC 1D029E73
Track not present in AccurateRip database
Copy OK
Track 8
Filename G:\John Coltrane - Sun Ship. The Complete Session (2013) [2CD] {Verve}\CD1\08 - Sun Ship - Take 1, Breakdown.wav
Peak level 97.9 %
Extraction speed 4.7 X
Track quality 100.0 %
Test CRC 1B5B71A0
Copy CRC 1B5B71A0
Track not present in AccurateRip database
Copy OK
Track 9
Filename G:\John Coltrane - Sun Ship. The Complete Session (2013) [2CD] {Verve}\CD1\09 - Sun Ship - Take 2, Complete Alternate Version.wav
Peak level 98.5 %
Extraction speed 7.3 X
Track quality 100.0 %
Test CRC 357F4101
Copy CRC 357F4101
Track not present in AccurateRip database
Copy OK
Track 10
Filename G:\John Coltrane - Sun Ship. The Complete Session (2013) [2CD] {Verve}\CD1\10 - Sun Ship - Take 3, Insert 1.wav
Peak level 100.0 %
Extraction speed 6.6 X
Track quality 100.0 %
Test CRC 32A03DE6
Copy CRC 32A03DE6
Track not present in AccurateRip database
Copy OK
Track 11
Filename G:\John Coltrane - Sun Ship. The Complete Session (2013) [2CD] {Verve}\CD1\11 - Sun Ship - Take 4, Complete Version.wav
Peak level 98.1 %
Extraction speed 7.7 X
Track quality 100.0 %
Test CRC C938A405
Copy CRC C938A405
Track not present in AccurateRip database
Copy OK
None of the tracks are present in the AccurateRip database
No errors occurred
End of status report
==== Log checksum A1CBD4C610FEC28FEB574F17D16C7F790B3DF8E2634EE38EA87263F3053D936F ====
 
Содержание индексной карты (.CUE)
REM GENRE Jazz
REM DATE 2013
REM DISCID 840E310B
REM COMMENT "ExactAudioCopy v1.0b3"
PERFORMER "John Coltrane"
TITLE "Sun Ship. The Complete Session (CD1)"
FILE "01 - Dearly Beloved - Take 1 & 2, Fales Start and Alternate Version.wav" WAVE
TRACK 01 AUDIO
TITLE "Dearly Beloved - Take 1 & 2, Fales Start and Alternate Version"
PERFORMER "John Coltrane"
FLAGS DCP
INDEX 01 00:00:00
FILE "02 - Dearly Beloved - Take 3, Breakdown.wav" WAVE
TRACK 02 AUDIO
TITLE "Dearly Beloved - Take 3, Breakdown"
PERFORMER "John Coltrane"
FLAGS DCP
INDEX 01 00:00:00
FILE "03 - Dearly Beloved - Take 4, Complete Version.wav" WAVE
TRACK 03 AUDIO
TITLE "Dearly Beloved - Take 4, Complete Version"
PERFORMER "John Coltrane"
FLAGS DCP
INDEX 01 00:00:00
FILE "04 - Attaining - Take 1, Alternate Version.wav" WAVE
TRACK 04 AUDIO
TITLE "Attaining - Take 1, Alternate Version"
PERFORMER "John Coltrane"
FLAGS DCP
INDEX 01 00:00:00
FILE "05 - Attaining - Take 2, Breakdown.wav" WAVE
TRACK 05 AUDIO
TITLE "Attaining - Take 2, Breakdown"
PERFORMER "John Coltrane"
FLAGS DCP
INDEX 01 00:00:00
FILE "06 - Attaining - Take 3, Complete Version.wav" WAVE
TRACK 06 AUDIO
TITLE "Attaining - Take 3, Complete Version"
PERFORMER "John Coltrane"
FLAGS DCP
INDEX 01 00:00:00
FILE "07 - Attaining - Take 4, Insert 1.wav" WAVE
TRACK 07 AUDIO
TITLE "Attaining - Take 4, Insert 1"
PERFORMER "John Coltrane"
FLAGS DCP
INDEX 01 00:00:00
FILE "08 - Sun Ship - Take 1, Breakdown.wav" WAVE
TRACK 08 AUDIO
TITLE "Sun Ship - Take 1, Breakdown"
PERFORMER "John Coltrane"
FLAGS DCP
INDEX 01 00:00:00
FILE "09 - Sun Ship - Take 2, Complete Alternate Version.wav" WAVE
TRACK 09 AUDIO
TITLE "Sun Ship - Take 2, Complete Alternate Version"
PERFORMER "John Coltrane"
FLAGS DCP
INDEX 01 00:00:00
FILE "10 - Sun Ship - Take 3, Insert 1.wav" WAVE
TRACK 10 AUDIO
TITLE "Sun Ship - Take 3, Insert 1"
PERFORMER "John Coltrane"
FLAGS DCP
INDEX 01 00:00:00
FILE "11 - Sun Ship - Take 4, Complete Version.wav" WAVE
TRACK 11 AUDIO
TITLE "Sun Ship - Take 4, Complete Version"
PERFORMER "John Coltrane"
FLAGS DCP
INDEX 01 00:00:00
 
♦ CD2 (00:46:47)
Треклист:

01. Studio Conversation [00:43]
02. Ascent - Take 1, Complete Version [11:34]
03. Ascent - Take 2, Incomplete Version [04:49]
04. Ascent - Take 3, False Starts and Incomplete Version [03:52]
05. Ascent - Take 4-6, Inserts / False Starts [01:40]
06. Ascent - Take 7, Complete Insert 4 [04:03]
07. Ascent - Take 8, Complete Insert 5 [04:02]
08. Amen - Take 1, Alternate Version [07:46]
09. Amen - Take 2, Released Version [08:16]
 
Лог создания рипа
Exact Audio Copy V1.0 beta 3 from 29. August 2011
EAC extraction logfile from 9. June 2013, 20:57
John Coltrane / Sun Ship. The Complete Session (CD2)
Used drive : ATAPI iHAS124 B Adapter: 4 ID: 0
Read mode : Secure
Utilize accurate stream : Yes
Defeat audio cache : Yes
Make use of C2 pointers : No
Read offset correction : 6
Overread into Lead-In and Lead-Out : No
Fill up missing offset samples with silence : Yes
Delete leading and trailing silent blocks : No
Null samples used in CRC calculations : Yes
Used interface : Native Win32 interface for Win NT & 2000
Gap handling : Appended to previous track
Used output format : User Defined Encoder
Selected bitrate : 1024 kBit/s
Quality : High
Add ID3 tag : No
Command line compressor : C:\Program Files (x86)\FLAC\flac.exe
Additional command line options : -8 -V -T "ARTIST=%artist%" -T "TITLE=%title%" -T "ALBUM=%albumtitle%" -T "DATE=%year%" -T "TRACKNUMBER=%tracknr%" -T "TOTALTRACKS=%numtracks%" -T "GENRE=%genre%" -T "ALBUMARTIST=%albumartist%" -T "ALBUM ARTIST=%albumartist%" -T "COMMENT=EAC Secure Mode, Test & Copy, AccurateRip, FLAC -8" %source%
TOC of the extracted CD
Track | Start | Length | Start sector | End sector
---------------------------------------------------------
1 | 0:00.00 | 0:43.12 | 0 | 3236
2 | 0:43.12 | 11:34.64 | 3237 | 55350
3 | 12:18.01 | 4:49.37 | 55351 | 77062
4 | 17:07.38 | 3:52.00 | 77063 | 94462
5 | 20:59.38 | 1:40.15 | 94463 | 101977
6 | 22:39.53 | 4:03.26 | 101978 | 120228
7 | 26:43.04 | 4:02.11 | 120229 | 138389
8 | 30:45.15 | 7:46.25 | 138390 | 173364
9 | 38:31.40 | 8:16.15 | 173365 | 210579
Track 1
Filename G:\John Coltrane - Sun Ship. The Complete Session (2013) [2CD] {Verve}\CD2\01 - Studio Conversation.wav
Pre-gap length 0:00:02.00
Peak level 47.7 %
Extraction speed 1.2 X
Track quality 99.7 %
Test CRC 2D2E9590
Copy CRC 2D2E9590
Track not present in AccurateRip database
Copy OK
Track 2
Filename G:\John Coltrane - Sun Ship. The Complete Session (2013) [2CD] {Verve}\CD2\02 - Ascent - Take 1, Complete Version.wav
Peak level 100.0 %
Extraction speed 4.4 X
Track quality 99.9 %
Test CRC 86BB3D14
Copy CRC 86BB3D14
Track not present in AccurateRip database
Copy OK
Track 3
Filename G:\John Coltrane - Sun Ship. The Complete Session (2013) [2CD] {Verve}\CD2\03 - Ascent - Take 2, Incomplete Version.wav
Peak level 72.4 %
Extraction speed 4.2 X
Track quality 99.9 %
Test CRC 7A7A282A
Copy CRC 7A7A282A
Track not present in AccurateRip database
Copy OK
Track 4
Filename G:\John Coltrane - Sun Ship. The Complete Session (2013) [2CD] {Verve}\CD2\04 - Ascent - Take 3, False Starts and Incomplete Version.wav
Peak level 97.2 %
Extraction speed 5.2 X
Track quality 100.0 %
Test CRC B1A0C85A
Copy CRC B1A0C85A
Track not present in AccurateRip database
Copy OK
Track 5
Filename G:\John Coltrane - Sun Ship. The Complete Session (2013) [2CD] {Verve}\CD2\05 - Ascent - Take 4-6, Inserts , False Starts.wav
Peak level 97.7 %
Extraction speed 4.4 X
Track quality 100.0 %
Test CRC 54C0ACB2
Copy CRC 54C0ACB2
Track not present in AccurateRip database
Copy OK
Track 6
Filename G:\John Coltrane - Sun Ship. The Complete Session (2013) [2CD] {Verve}\CD2\06 - Ascent - Take 7, Complete Insert 4.wav
Peak level 100.0 %
Extraction speed 4.5 X
Track quality 99.9 %
Test CRC B584286D
Copy CRC B584286D
Track not present in AccurateRip database
Copy OK
Track 7
Filename G:\John Coltrane - Sun Ship. The Complete Session (2013) [2CD] {Verve}\CD2\07 - Ascent - Take 8, Complete Insert 5.wav
Peak level 98.1 %
Extraction speed 5.9 X
Track quality 100.0 %
Test CRC A89684CB
Copy CRC A89684CB
Track not present in AccurateRip database
Copy OK
Track 8
Filename G:\John Coltrane - Sun Ship. The Complete Session (2013) [2CD] {Verve}\CD2\08 - Amen - Take 1, Alternate Version.wav
Peak level 98.2 %
Extraction speed 6.6 X
Track quality 100.0 %
Test CRC E26C19EB
Copy CRC E26C19EB
Track not present in AccurateRip database
Copy OK
Track 9
Filename G:\John Coltrane - Sun Ship. The Complete Session (2013) [2CD] {Verve}\CD2\09 - Amen - Take 2, Released Version.wav
Peak level 98.9 %
Extraction speed 7.1 X
Track quality 100.0 %
Test CRC 09CA16E3
Copy CRC 09CA16E3
Track not present in AccurateRip database
Copy OK
None of the tracks are present in the AccurateRip database
No errors occurred
End of status report
==== Log checksum 574C57FE6E6AE08630DEBF8ABAAF8F3118AE61D9772A0FD7D338456AB21CCB6A ====
 
Содержание индексной карты (.CUE)
REM GENRE Jazz
REM DATE 2013
REM DISCID 600AF709
REM COMMENT "ExactAudioCopy v1.0b3"
PERFORMER "John Coltrane"
TITLE "Sun Ship. The Complete Session (CD2)"
FILE "01 - Studio Conversation.wav" WAVE
TRACK 01 AUDIO
TITLE "Studio Conversation"
PERFORMER "John Coltrane"
FLAGS DCP
INDEX 01 00:00:00
FILE "02 - Ascent - Take 1, Complete Version.wav" WAVE
TRACK 02 AUDIO
TITLE "Ascent - Take 1, Complete Version"
PERFORMER "John Coltrane"
FLAGS DCP
INDEX 01 00:00:00
FILE "03 - Ascent - Take 2, Incomplete Version.wav" WAVE
TRACK 03 AUDIO
TITLE "Ascent - Take 2, Incomplete Version"
PERFORMER "John Coltrane"
FLAGS DCP
INDEX 01 00:00:00
FILE "04 - Ascent - Take 3, False Starts and Incomplete Version.wav" WAVE
TRACK 04 AUDIO
TITLE "Ascent - Take 3, False Starts and Incomplete Version"
PERFORMER "John Coltrane"
FLAGS DCP
INDEX 01 00:00:00
FILE "05 - Ascent - Take 4-6, Inserts , False Starts.wav" WAVE
TRACK 05 AUDIO
TITLE "Ascent - Take 4-6, Inserts / False Starts"
PERFORMER "John Coltrane"
FLAGS DCP
INDEX 01 00:00:00
FILE "06 - Ascent - Take 7, Complete Insert 4.wav" WAVE
TRACK 06 AUDIO
TITLE "Ascent - Take 7, Complete Insert 4"
PERFORMER "John Coltrane"
FLAGS DCP
INDEX 01 00:00:00
FILE "07 - Ascent - Take 8, Complete Insert 5.wav" WAVE
TRACK 07 AUDIO
TITLE "Ascent - Take 8, Complete Insert 5"
PERFORMER "John Coltrane"
FLAGS DCP
INDEX 01 00:00:00
FILE "08 - Amen - Take 1, Alternate Version.wav" WAVE
TRACK 08 AUDIO
TITLE "Amen - Take 1, Alternate Version"
PERFORMER "John Coltrane"
FLAGS DCP
INDEX 01 00:00:00
FILE "09 - Amen - Take 2, Released Version.wav" WAVE
TRACK 09 AUDIO
TITLE "Amen - Take 2, Released Version"
PERFORMER "John Coltrane"
FLAGS DCP
INDEX 01 00:00:00
 
Состав
Personnel: John Coltrane: tenor saxophone; McCoy Tyner: piano; Jimmy Garrison: bass; Elvin Jones: drums.
Any questions -> support@pro-jazz.com. По всем вопросам пишите -> support@pro-jazz.com
14:36
185
Нет комментариев. Ваш будет первым!