Поиск

(Avant-Garde Jazz / Jazz-Rock / Fusion / Alternative) [CD] Niechęć (Niechec) - Niechęć (Niechec) - 2016, FLAC (tracks+.cue), lossless

(Avant-Garde Jazz / Jazz-Rock / Fusion / Alternative) [CD] Niechęć (Niechec) - Niechęć (Niechec) - 2016, FLAC (tracks+.cue), lossless
Niechęć - Niechęć
Жанр: Avant-Garde Jazz / Jazz-Rock / Fusion / Alternative
Носитель: CD
Страна-производитель диска (релиза): Poland
Год издания: 2016
Издатель (лейбл): Wytwórnia Krajowa
Номер по каталогу: WK12
Страна исполнителя (группы): Poland
Аудиокодек: FLAC (*.flac)
Тип рипа: tracks+.cue
Битрейт аудио: lossless
Продолжительность: 00:44:16
Источник (релизер): what.cd / спасибо kivius
Наличие сканов в содержимом раздачи: cover & back only
Треклист:
1. Koniec (08:43)
2. Rajza (03:32)
3. Echotony (03:46)
4. Metanol (06:04)
5. Krew (04:35)
6. Widzenie (04:04)
7. Atak (03:59)
8. Trzeba to zrobić (09:29)
Доп. информация:
Musicians:
Maciej Zwierzchowski - saxophones
Rafał Błaszczak - guitar
Tomek Wielechowski - piano
Maciej Szczepański - bass
Michał Kaczorek - percussion
+
Sebastian Witkowski - dub & electronics
Karolina Rec - cello (3)
Piotr Łukaszewski- guitar (3)
Jacek Szabrański - guitar (3)
Niechęć Official Site
Niechęć- Niechęć bandcamp.com
Niechęć wytworniakrajowa.pl
 
... photo ...

 
... rewiev ...
As they say this is the 3rd long-awaited full album by Polish jazz group "Niechęć", because the idea of the 2nd album was thrown in trash ))
Their unique stylish ability to combine dark cinematic music, prog-rock, post-rock, nu jazz, free jazz, lyrics of piano & features in the style of "Kandinsky Effect" is amazing.
Their 1st album was named as "a punch that's hard to duck from". This release seems to be more mature and hits the target even better ))
Let's see what critics will say.)) Favorite track: Atak.
~ Olga Kivius, bandcamp.com
 
Лог создания рипа
Exact Audio Copy V1.0 beta 4 from 7. December 2014
EAC extraction logfile from 29. April 2016, 13:59
Niechęć / Niechęć
Used drive : TSSTcorpCDDVDW SE-208DB Adapter: 1 ID: 1
Read mode : Secure
Utilize accurate stream : Yes
Defeat audio cache : Yes
Make use of C2 pointers : No
Read offset correction : 6
Overread into Lead-In and Lead-Out : No
Fill up missing offset samples with silence : Yes
Delete leading and trailing silent blocks : No
Null samples used in CRC calculations : Yes
Used interface : Native Win32 interface for Win NT & 2000
Gap handling : Appended to previous track
Used output format : User Defined Encoder
Selected bitrate : 1024 kBit/s
Quality : High
Add ID3 tag : No
Command line compressor : C:\Program Files (x86)\Exact Audio Copy\Flac\flac.exe
Additional command line options : -8 -V -T "ARTIST=%artist%" -T "TITLE=%title%" -T "ALBUM=%albumtitle%" -T "DATE=%year%" -T "TRACKNUMBER=%tracknr%" -T "GENRE=%genre%" -T "PERFORMER=%albuminterpret%" -T "COMPOSER=%composer%" %haslyrics%--tag-from-file=LYRICS="%lyricsfile%"%haslyrics% -T "ALBUMARTIST=%albumartist%" -T "DISCNUMBER=%cdnumber%" -T "TOTALDISCS=%totalcds%" -T "TOTALTRACKS=%numtracks%" -T "COMMENT=%comment%" %source% -o %dest%
TOC of the extracted CD
Track | Start | Length | Start sector | End sector
---------------------------------------------------------
1 | 0:00.00 | 8:43.30 | 0 | 39254
2 | 8:43.30 | 3:32.00 | 39255 | 55154
3 | 12:15.30 | 3:45.53 | 55155 | 72082
4 | 16:01.08 | 6:04.01 | 72083 | 99383
5 | 22:05.09 | 4:35.71 | 99384 | 120079
6 | 26:41.05 | 4:04.53 | 120080 | 138432
7 | 30:45.58 | 3:59.36 | 138433 | 156393
8 | 34:45.19 | 9:30.66 | 156394 | 199209
Track 1
Filename C:\Niechec - Niechec (2016) [FLAC CD]\01 Koniec.wav
Pre-gap length 0:00:02.00
Peak level 100.0 %
Extraction speed 1.9 X
Track quality 100.0 %
Test CRC 13A888ED
Copy CRC 13A888ED
Accurately ripped (confidence 1) [7056550E] (AR v2)
Copy OK
Track 2
Filename C:\Niechec - Niechec (2016) [FLAC CD]\02 Rajza.wav
Peak level 100.0 %
Extraction speed 2.6 X
Track quality 100.0 %
Test CRC EC3101BA
Copy CRC EC3101BA
Accurately ripped (confidence 1) [5CB4229F] (AR v2)
Copy OK
Track 3
Filename C:\Niechec - Niechec (2016) [FLAC CD]\03 Echotony.wav
Peak level 100.0 %
Extraction speed 2.8 X
Track quality 100.0 %
Test CRC 066E7109
Copy CRC 066E7109
Accurately ripped (confidence 1) [C8185251] (AR v2)
Copy OK
Track 4
Filename C:\Niechec - Niechec (2016) [FLAC CD]\04 Metanol.wav
Peak level 100.0 %
Extraction speed 3.1 X
Track quality 100.0 %
Test CRC 2A027591
Copy CRC 2A027591
Accurately ripped (confidence 1) [BB46110A] (AR v2)
Copy OK
Track 5
Filename C:\Niechec - Niechec (2016) [FLAC CD]\05 Krew.wav
Peak level 100.0 %
Extraction speed 3.2 X
Track quality 100.0 %
Test CRC 5FE6D091
Copy CRC 5FE6D091
Accurately ripped (confidence 1) [F62A0ADB] (AR v2)
Copy OK
Track 6
Filename C:\Niechec - Niechec (2016) [FLAC CD]\06 Widzenie.wav
Peak level 100.0 %
Extraction speed 2.6 X
Track quality 99.9 %
Test CRC 21203007
Copy CRC 21203007
Accurately ripped (confidence 1) [FDBB0CA8] (AR v2)
Copy OK
Track 7
Filename C:\Niechec - Niechec (2016) [FLAC CD]\07 Atak.wav
Peak level 100.0 %
Extraction speed 3.4 X
Track quality 100.0 %
Test CRC 1DA94016
Copy CRC 1DA94016
Accurately ripped (confidence 1) [2C87BF55] (AR v2)
Copy OK
Track 8
Filename C:\Niechec - Niechec (2016) [FLAC CD]\08 Trzeba to zrobić.wav
Peak level 100.0 %
Extraction speed 3.9 X
Track quality 100.0 %
Test CRC ACF0B855
Copy CRC ACF0B855
Accurately ripped (confidence 1) [420EC165] (AR v2)
Copy OK
All tracks accurately ripped
No errors occurred
End of status report
---- CUETools DB Plugin V2.1.4
[CTDB TOCID: zsDToweAJJPbEMPy0_94j.tdQyI-] found
Submit result: zsDToweAJJPbEMPy0_94j.tdQyI- has been confirmed
Track | CTDB Status
1 | (2/2) Accurately ripped
2 | (2/2) Accurately ripped
3 | (2/2) Accurately ripped
4 | (2/2) Accurately ripped
5 | (2/2) Accurately ripped
6 | (2/2) Accurately ripped
7 | (2/2) Accurately ripped
8 | (2/2) Accurately ripped
==== Log checksum A813FA1F0BE94D48DF27DB5E1620005C6467F521061112A2552F3054C12A65AE ====
 
Содержание индексной карты (.CUE)
REM GENRE Jazz
REM DATE 2016
REM DISCID 6D0A6008
REM COMMENT "ExactAudioCopy v1.0b4"
PERFORMER "Niechec"
TITLE "Niechec"
FILE "01 Koniec.wav" WAVE
TRACK 01 AUDIO
TITLE "Koniec"
PERFORMER "Niechec"
ISRC PLF431600001
INDEX 01 00:00:00
FILE "02 Rajza.wav" WAVE
TRACK 02 AUDIO
TITLE "Rajza"
PERFORMER "Niechec"
ISRC PLF431600002
INDEX 01 00:00:00
FILE "03 Echotony.wav" WAVE
TRACK 03 AUDIO
TITLE "Echotony"
PERFORMER "Niechec"
ISRC PLF431600003
INDEX 01 00:00:00
FILE "04 Metanol.wav" WAVE
TRACK 04 AUDIO
TITLE "Metanol"
PERFORMER "Niechec"
ISRC PLF431600004
INDEX 01 00:00:00
FILE "05 Krew.wav" WAVE
TRACK 05 AUDIO
TITLE "Krew"
PERFORMER "Niechec"
ISRC PLF431600005
INDEX 01 00:00:00
FILE "06 Widzenie.wav" WAVE
TRACK 06 AUDIO
TITLE "Widzenie"
PERFORMER "Niechec"
ISRC PLF431600006
INDEX 01 00:00:00
FILE "07 Atak.wav" WAVE
TRACK 07 AUDIO
TITLE "Atak"
PERFORMER "Niechec"
ISRC PLF431600007
INDEX 01 00:00:00
FILE "08 Trzeba to zrobic.wav" WAVE
TRACK 08 AUDIO
TITLE "Trzeba to zrobic"
PERFORMER "Niechec"
ISRC PLF431600007
INDEX 01 00:00:00
20:04
388
Нет комментариев. Ваш будет первым!