Вы используете незарегистрированную версию компонента "Вкладки"!

Поиск

(avant-garde jazz) Herculaneum - Orange Blossom - 2006, FLAC (image+.cue), lossless

(avant-garde jazz) Herculaneum - Orange Blossom - 2006, FLAC (image+.cue), lossless
Треклист:
Herculaneum / Orange Blossom
Жанр: avant-garde jazz
Страна-производитель диска: USA
Год издания: 2006
Издатель (лейбл): 482 Music
Номер по каталогу: 482-1051
Страна: USA
Аудиокодек: FLAC (*.flac)
Тип рипа: image+.cue
Битрейт аудио: lossless
Продолжительность: 39:47
Источник (релизер): Собственный рип
Наличие сканов в содержимом раздачи: да
Треклист:
1. bears of illium
2. let there be neon
3. fuzball in valhalla
4. girl, we couldnt get much higher
5. lionheart
6. cry of the locusts
7. twin unicorns
8. return to the woods
 
Лог создания рипа
Exact Audio Copy V1.0 beta 3 from 29. August 2011
EAC extraction logfile from 3. January 2013, 19:41
Herculaneum / Orange Blossom
Used drive : Optiarc DVD RW AD-7243S Adapter: 0 ID: 1
Read mode : Secure
Utilize accurate stream : Yes
Defeat audio cache : Yes
Make use of C2 pointers : No
Read offset correction : 48
Overread into Lead-In and Lead-Out : No
Fill up missing offset samples with silence : Yes
Delete leading and trailing silent blocks : No
Null samples used in CRC calculations : Yes
Used interface : Native Win32 interface for Win NT & 2000
Used output format : User Defined Encoder
Selected bitrate : 768 kBit/s
Quality : High
Add ID3 tag : No
Command line compressor : C:\Program Files\Exact Audio Copy\FLAC\FLAC.EXE
Additional command line options : V -8 -T "Genre=%genre%" -T "Artist=%artist%" -T "Title=%title%" -T "Album=%albumtitle%" -T "Date=%year%" -T "Tracknumber=%tracknr%" -T "Comment=%comment%" %source%
TOC of the extracted CD
Track | Start | Length | Start sector | End sector
---------------------------------------------------------
1 | 0:00.00 | 5:35.63 | 0 | 25187
2 | 5:35.63 | 4:27.42 | 25188 | 45254
3 | 10:03.30 | 6:21.31 | 45255 | 73860
4 | 16:24.61 | 7:07.15 | 73861 | 105900
5 | 23:32.01 | 6:25.45 | 105901 | 134820
6 | 29:57.46 | 5:40.06 | 134821 | 160326
7 | 35:37.52 | 5:56.01 | 160327 | 187027
8 | 41:33.53 | 7:02.43 | 187028 | 218720
Range status and errors
Selected range
Filename C:\Documents and Settings\S\Мои документы\Torrent раздача\Herculaneum - Orange Blossom.wav
Peak level 100.0 %
Extraction speed 3.8 X
Range quality 99.9 %
Test CRC 6C0C6D5D
Copy CRC 6C0C6D5D
Copy OK
No errors occurred
AccurateRip summary
Track 1 not present in database
Track 2 not present in database
Track 3 not present in database
Track 4 not present in database
Track 5 not present in database
Track 6 not present in database
Track 7 not present in database
Track 8 not present in database
None of the tracks are present in the AccurateRip database
End of status report
==== Log checksum 0818DF314AC13B6C7F2F3FEF200DD37E3C2854BA8C73285457E55E961E6D50C1 ====
 
Содержание индексной карты (.CUE)
REM GENRE Jazz
REM DATE 2006
REM DISCID 780B6408
REM COMMENT "ExactAudioCopy v1.0b3"
PERFORMER "Herculaneum"
TITLE "Orange Blossom"
FILE "Herculaneum - Orange Blossom.flac" WAVE
TRACK 01 AUDIO
TITLE "bears of illium"
PERFORMER "Herculaneum"
INDEX 01 00:00:00
TRACK 02 AUDIO
TITLE "let there be neon"
PERFORMER "Herculaneum"
INDEX 00 05:33:22
INDEX 01 05:35:63
TRACK 03 AUDIO
TITLE "fuzball in valhalla"
PERFORMER "Herculaneum"
INDEX 00 10:01:20
INDEX 01 10:03:30
TRACK 04 AUDIO
TITLE "girl, we couldnt get much higher"
PERFORMER "Herculaneum"
INDEX 00 16:23:37
INDEX 01 16:24:61
TRACK 05 AUDIO
TITLE "lionheart"
PERFORMER "Herculaneum"
INDEX 00 23:30:66
INDEX 01 23:32:01
TRACK 06 AUDIO
TITLE "cry of the locusts"
PERFORMER "Herculaneum"
INDEX 01 29:57:46
TRACK 07 AUDIO
TITLE "twin unicorns"
PERFORMER "Herculaneum"
INDEX 01 35:37:52
TRACK 08 AUDIO
TITLE "return to the woods"
PERFORMER "Herculaneum"
INDEX 00 41:30:37
INDEX 01 41:33:53
 
Состав
p. newbery - trumpet
n. broste - trombone
d. mcdonnel - sax, clarinet
g. danek - bass
d. ryan - drums, vibraphone, piano
Any questions -> support@pro-jazz.com. По всем вопросам пишите -> support@pro-jazz.com
08:13
207
Нет комментариев. Ваш будет первым!