Вы используете незарегистрированную версию компонента "Вкладки"!

Поиск

(Avant-Garde Jazz) Henry Threadgill's Very Very Circus - Spirit of Nuff...Nuff - 1990, FLAC (tracks+.cue), lossless

(Avant-Garde Jazz) Henry Threadgill's Very Very Circus - Spirit of Nuff...Nuff - 1990, FLAC (tracks+.cue), lossless
Треклист:
Henry Threadgill's Very Very Circus - Spirit of Nuff...Nuff
Жанр: Avant-Garde Jazz
Год выпуска диска: 1990
Производитель диска: Black Saint (Italy)
Аудио кодек: FLAC
Тип рипа: tracks+.cue
Битрейт аудио: lossless
Продолжительность: 58:14
Трэклист:
1 Hope a Hope a Threadgill 7:40
2 Unrealistic Love Threadgill 10:39
3 Drivin' You Slow and Crazy Threadgill 10:29
4 Bee Dee Aff Threadgill 9:28
5 First Church of This Threadgill 8:04
6 Exacto Threadgill 5:02
7 In the Ring Threadgill 6:48
Доп. информация:
Собственный рип с оригинального диска.
В комплекте полный набор сканов JPEG/600dpi.

Curtis Fowlkes Trombone
Gene Lake Drums
Masujaa Guitar (Electric)
Edwin Rodriguez Tuba
Marcus Rojas Tuba
Brandon Ross Guitar (Electric)
Henry Threadgill Flute, Sax (Alto)
 
Отчёт EAC
Exact Audio Copy V0.99 prebeta 4 from 23. January 2008
EAC extraction logfile from 22. April 2009, 0:12
Henry Threadgill's Very Very Circus / Spirit of Nuff...Nuff
Used drive : PIONEER DVD-RW DVR-111D Adapter: 0 ID: 1
Read mode : Secure
Utilize accurate stream : Yes
Defeat audio cache : Yes
Make use of C2 pointers : No
Read offset correction : 48
Overread into Lead-In and Lead-Out : No
Fill up missing offset samples with silence : Yes
Delete leading and trailing silent blocks : No
Null samples used in CRC calculations : Yes
Used interface : Native Win32 interface for Win NT & 2000
Gap handling : Appended to previous track
Used output format : User Defined Encoder
Selected bitrate : 128 kBit/s
Quality : High
Add ID3 tag : No
Command line compressor : C:\Program Files\FLAC\flac.exe
Additional command line options : -V -8 -T "artist=%a" -T "title=%t" -T "album=%g" -T "date=%y" -T "tracknumber=%n" -T "genre=%m" %s
TOC of the extracted CD
Track | Start | Length | Start sector | End sector
---------------------------------------------------------
1 | 0:00.33 | 7:40.50 | 33 | 34582
2 | 7:41.08 | 10:39.25 | 34583 | 82532
3 | 18:20.33 | 10:29.00 | 82533 | 129707
4 | 28:49.33 | 9:28.25 | 129708 | 172332
5 | 38:17.58 | 8:04.25 | 172333 | 208657
6 | 46:22.08 | 5:02.25 | 208658 | 231332
7 | 51:24.33 | 6:48.00 | 231333 | 261932
Track 1
Filename I:\Henry Threadgill's Very Very Circus - Spirit of Nuff...Nuff (1990) [FLAC]\01 - Hope A Hope A.wav
Pre-gap length 0:00:02.44
Peak level 89.6 %
Track quality 100.0 %
Test CRC D46EB871
Copy CRC D46EB871
Copy OK
Track 2
Filename I:\Henry Threadgill's Very Very Circus - Spirit of Nuff...Nuff (1990) [FLAC]\02 - Unrealistic Love.wav
Peak level 89.6 %
Track quality 100.0 %
Test CRC 69851701
Copy CRC 69851701
Copy OK
Track 3
Filename I:\Henry Threadgill's Very Very Circus - Spirit of Nuff...Nuff (1990) [FLAC]\03 - Drivin' You Slow and Crazy.wav
Peak level 89.5 %
Track quality 100.0 %
Test CRC 785DDC4C
Copy CRC 785DDC4C
Copy OK
Track 4
Filename I:\Henry Threadgill's Very Very Circus - Spirit of Nuff...Nuff (1990) [FLAC]\04 - Bee Dee Aff.wav
Peak level 89.6 %
Track quality 100.0 %
Test CRC B636B77A
Copy CRC B636B77A
Copy OK
Track 5
Filename I:\Henry Threadgill's Very Very Circus - Spirit of Nuff...Nuff (1990) [FLAC]\05 - First Church of This.wav
Peak level 89.5 %
Track quality 100.0 %
Test CRC F15D0C9D
Copy CRC F15D0C9D
Copy OK
Track 6
Filename I:\Henry Threadgill's Very Very Circus - Spirit of Nuff...Nuff (1990) [FLAC]\06 - Exacto.wav
Peak level 89.6 %
Track quality 100.0 %
Test CRC 96664B02
Copy CRC 96664B02
Copy OK
Track 7
Filename I:\Henry Threadgill's Very Very Circus - Spirit of Nuff...Nuff (1990) [FLAC]\07 - In the Ring.wav
Peak level 89.6 %
Track quality 100.0 %
Test CRC F4931621
Copy CRC F4931621
Copy OK
No errors occurred
End of status report
Any questions -> support@pro-jazz.com. По всем вопросам пишите -> support@pro-jazz.com
10:19
187
Нет комментариев. Ваш будет первым!