Вы используете незарегистрированную версию компонента "Вкладки"!

Поиск

(Avant-Garde Jazz, Hard Bop) John Coltrane - Ole - 1962, FLAC (image+.cue), lossless

(Avant-Garde Jazz, Hard Bop) John Coltrane - Ole - 1962, FLAC (image+.cue), lossless
Треклист:
John Coltrane - Olé
Жанр: Avant-Garde Jazz, Hard Bop
Страна-производитель диска: Germany
Год издания: 1962 / 2000
Издатель (лейбл): Atlantic / Warner Jazz
Номер по каталогу: 81227 3699-2
Страна: USA
Аудиокодек: FLAC (*.flac)
Тип рипа: image+.cue
Битрейт аудио: lossless
Продолжительность: 45:40
Источник (релизер): собственный рип
Наличие сканов в содержимом раздачи: да
Треклист:
1. Olé
2. Dahomey Dance
3. Aisha
4. Original Untitled Ballad (To Her Ladyship)
 
Лог создания рипа
Exact Audio Copy V1.0 beta 3 from 29. August 2011
Отчёт EAC об извлечении, выполненном 22. октября 2012, 14:22
John Coltrane / Ole
Дисковод: HL-DT-STDVDRAM GH22NS70 Adapter: 1 ID: 0
Режим чтения : Достоверность
Использование точного потока : Да
Отключение кэша аудио : Да
Использование указателей C2 : Нет
Коррекция смещения при чтении : 667
Способность читать области Lead-in и Lead-out : Нет
Заполнение пропущенных сэмплов тишиной : Да
Удаление блоков с тишиной в начале и конце : Нет
При вычислениях CRC использовались нулевые сэмплы : Да
Интерфейс : Встроенный Win32-интерфейс для Win NT/2000
Выходной формат : Пользовательский кодировщик
Выбранный битрейт : 128 kBit/s
Качество : Высокий
Добавление ID3-тега : Нет
Утилита сжатия : C:\Program Files\Exact Audio Copy\FLAC\FLAC.EXE
Дополнительные параметры : -V -8 -T "Date=%year%" -T "Genre=%genre%" %source%
TOC извлечённого CD
Трек | Старт | Длительность | Начальный сектор | Конечный сектор
---------------------------------------------------------------------
1 | 0:00.00 | 18:19.02 | 0 | 82426
2 | 18:19.02 | 10:52.58 | 82427 | 131384
3 | 29:11.60 | 7:44.60 | 131385 | 166244
4 | 36:56.45 | 9:00.37 | 166245 | 206781
Характеристики диапазона извлечения и сообщения об ошибках
Выбранный диапазон
Имя файла D:\Up-Down\John Coltrane - Ole\John Coltrane - Ole.wav
Пиковый уровень 97.2 %
Скорость извлечения 1.7 X
Качество диапазона 100.0 %
CRC теста F8DEAE42
CRC копии F8DEAE42
Копирование... OK
Ошибок не произошло
AccurateRip: сводка
Трек 1 : извлечено точно (доверие 2) [FEB59830] (AR v2)
Трек 2 : извлечено точно (доверие 2) [A1E6BA5C] (AR v2)
Трек 3 : извлечено точно (доверие 2) [4CA25861] (AR v2)
Трек 4 : извлечено точно (доверие 2) [950A3665] (AR v2)
Все треки извлечены точно
Конец отчёта
==== Контрольная сумма отчёта 709EE4CE2B98CF9689D3FFE92317455B322EE7DFDF2B3C8A0778B30D59DCD3C6 ====
 
Лог CUETools
[CUETools log; Date: 29.10.2012 12:35:16; Version: 2.1.4]
[CTDB TOCID: dNRmVJPHHk.YYq_E69QeVU5mIbA-] found.
Track | CTDB Status
1 | (4/5) Accurately ripped
2 | (4/5) Accurately ripped
3 | (4/5) Accurately ripped
4 | (4/5) Accurately ripped
[AccurateRip ID: 0008f457-002273ec-220ac504] found.
Track [ CRC | V2 ] Status
01 [eb8d6441|feb59830] (02+02/33) Accurately ripped
02 [06b25e9e|a1e6ba5c] (02+02/32) Accurately ripped
03 [4781873c|4ca25861] (02+02/32) Accurately ripped
04 [b0c9816c|950a3665] (02+02/33) Accurately ripped
Offsetted by 664:
01 [6d99cbff] (21/33) Accurately ripped
02 [c7fa1b56] (20/32) Accurately ripped
03 [0b864887] (20/32) Accurately ripped
04 [fe654188] (21/33) Accurately ripped
Track Peak [ CRC32 ] [W/O NULL] [ LOG ]
-- 97,2 [F8DEAE42] [83D1CB1E] CRC32
01 97,2 [170165DA] [83E49F84]
02 85,7 [CDCC4BC5] [F4106278]
03 92,3 [640E7E7D] [40360B38]
04 94,8 [FC223010] [E4EA9352]
 
Состав
John Coltrane - soprano & tenor sax
Eric Dolphy - flute & alto sax
Freddie Hubbard - trumpet
McCoy Tyner - piano
Reggie Workman - bass
Art Davis - bass
Elvin Jones - drums
 
Другие раздачи альбома
 
Лог EAC
EAC extraction logfile from 17. September 2007, 17:37 for CD
John Coltrane / Ole Coltrane (Japanese 24 Bit Remaster)
Used drive : PIONEER DVD-RW DVR-112D Adapter: 0 ID: 0
Read mode : Secure with NO C2, accurate stream, disable cache
Read offset correction : 48
Overread into Lead-In and Lead-Out : No
Used output format : C:\Program Files\Exact Audio Copy\flac-1.1.4-win\bin\flac.exe (User Defined Encoder)
128 kBit/s
Additional command line options : -8 -V -T "ARTIST=%a" -T "TITLE=%t" -T "ALBUM=%g" -T "DATE=%y" -T "TRACKNUMBER=%n" -T "GENRE=%m" -T "COMMENT=EAC Flac 1.1.4 -8" %s
Other options :
Fill up missing offset samples with silence : Yes
Delete leading and trailing silent blocks : No
Installed external ASPI interface
Track 1
Filename C:\Program Files\Exact Audio Copy\John Coltrane - 1961 - Ole Coltrane (Japanese 24 Bit Remaster)\01 - Ole.wav
Pre-gap length 0:00:02.00
Peak level 100.0 %
Track quality 100.0 %
Test CRC E4190A8B
Copy CRC E4190A8B
Copy OK
Track 2
Filename C:\Program Files\Exact Audio Copy\John Coltrane - 1961 - Ole Coltrane (Japanese 24 Bit Remaster)\02 - Dahomey Dance.wav
Pre-gap length 0:00:05.97
Peak level 100.0 %
Track quality 100.0 %
Test CRC C20959D7
Copy CRC C20959D7
Copy OK
Track 3
Filename C:\Program Files\Exact Audio Copy\John Coltrane - 1961 - Ole Coltrane (Japanese 24 Bit Remaster)\03 - Aisha.wav
Pre-gap length 0:00:02.53
Peak level 100.0 %
Track quality 100.0 %
Test CRC 050D62F5
Copy CRC 050D62F5
Copy OK
Track 4
Filename C:\Program Files\Exact Audio Copy\John Coltrane - 1961 - Ole Coltrane (Japanese 24 Bit Remaster)\04 - Original Untitled Ballad (To Her Ladyship).wav
Pre-gap length 0:00:07.36
Peak level 100.0 %
Track quality 100.0 %
Test CRC FDC8E723
Copy CRC FDC8E723
Copy OK
No errors occured
End of status report
 
Лог CUETools
[CUETools log; Date: 29.10.2012 12:36:08; Version: 2.1.4]
[CTDB TOCID: 7MVXnWVZys6dwSQPzpv3ek51vXY-] found.
Track | CTDB Status
1 | (4/4) Accurately ripped
2 | (4/4) Accurately ripped
3 | (4/4) Accurately ripped
4 | (4/4) Accurately ripped
[AccurateRip ID: 0008f4b6-00227560-230ac504] found.
Track [ CRC | V2 ] Status
01 [34acef49|d1497b4c] (7+0/7) Accurately ripped
02 [ffd293c6|b80c4afe] (7+0/7) Accurately ripped
03 [9b9257c2|5b0e24b7] (7+0/7) Accurately ripped
04 [b411d395|a5801af7] (7+0/7) Accurately ripped
Track Peak [ CRC32 ] [W/O NULL] [ LOG ]
-- 100,0 [F6CDF53A] [9B638D19]
01 100,0 [E4190A8B] [D3E50689] CRC32
02 100,0 [C20959D7] [C6BCCBBF] CRC32
03 100,0 [050D62F5] [D57F9F6D] CRC32
04 100,0 [FDC8E723] [CA105E89] CRC32
Ole Coltrane(Rhino)
 
Лог EAC
Exact Audio Copy V0.99 prebeta 5 from 4. May 2009
Отчёт EAC об извлечении, выполненном 24. июня 2009, 21:05
John Coltrane / Ole (2000 Rhino Edition)
Дисковод: _NEC DVD_RW ND-3520A Adapter: 0 ID: 1
Режим чтения : Достоверность
Использование точного потока : Да
Отключение кэша аудио : Да
Использование указателей C2 : Нет
Коррекция смещения при чтении : 48
Способность читать области Lead-in и Lead-out : Нет
Заполнение пропущенных сэмплов тишиной : Да
Удаление блоков с тишиной в начале и конце : Нет
При вычислениях CRC использовались нулевые сэмплы : Да
Интерфейс : Встроенный Win32-интерфейс для Win NT/2000
Выходной формат : Пользовательский кодировщик
Выбранный битрейт : 768 kBit/s
Качество : Высокий
Добавление ID3-тэга : Нет
Утилита сжатия : C:\Program Files\Exact Audio Copy\FLAC\FLAC.EXE
Дополнительные параметры : -6 -V -T "ARTIST=%a" -T "TITLE=%t" -T "ALBUM=%g" -T "DATE=%y" -T "TRACKNUMBER=%n" -T "GENRE=%m" -T "COMMENT=%e" %s -o %d
TOC извлечённого CD
Трек | Старт | Длительность | Начальный сектор | Конечный сектор
---------------------------------------------------------------------
1 | 0:00.32 | 18:18.45 | 32 | 82426
2 | 18:19.02 | 10:52.53 | 82427 | 131379
3 | 29:11.55 | 7:45.15 | 131380 | 166269
4 | 36:56.70 | 9:00.37 | 166270 | 206806
Характеристики диапазона извлечения и сообщения об ошибках
Выбранный диапазон
Имя файла E:\Downloads\John Coltrane - Ole Coltrane (2000 Rhino Edition) new\John Coltrane - Ole (2000 Rhino Edition).wav
Пиковый уровень 97.2 %
Качество диапазона 99.9 %
CRC теста AE59C129
CRC копии AE59C129
Копирование... OK
Ошибок не произошло
Конец отчёта
 
Лог CUETools
[CUETools log; Date: 29.10.2012 12:37:23; Version: 2.1.4]
Pregap length 00:00:32.
[CTDB TOCID: 8WDvGvItihiU_b6dTsrwTuKFlrc-] disk not present in database.
CUETools DB: 8WDvGvItihiU_b6dTsrwTuKFlrc- has been uploaded.
[AccurateRip ID: 0008f4a4-002274dd-220ac504] found.
Track [ CRC | V2 ] Status
01 [d304f34c|a94f74ca] (10+00/10) Accurately ripped
02 [91724220|9989ee9c] (10+00/10) Accurately ripped
03 [63244d5a|ff7bd1b2] (10+00/10) Accurately ripped
04 [8dee27d2|50c9f95d] (10+00/10) Accurately ripped
Track Peak [ CRC32 ] [W/O NULL] [ LOG ]
-- 97,2 [AE59C129] [4D7042FF] CRC32
01 97,2 [92B31378] [20046554]
02 85,7 [48037670] [6EE46122]
03 92,3 [82045EE6] [71C420CA]
04 94,8 [3E39437A] [FB6A416A]
Any questions -> support@pro-jazz.com. По всем вопросам пишите -> support@pro-jazz.com
04:52
196
Нет комментариев. Ваш будет первым!