Вы используете незарегистрированную версию компонента "Вкладки"!

Поиск

(avant-garde jazz) HAppy HOuse - HAppy HOuse - 2000, FLAC (image+.cue), lossless

Треклист:
HAppy HOuse / HAppy HOuse
Жанр: avant-garde jazz
Страна-производитель диска: France
Год издания диска: 2000
Издатель (лейбл): Kinpatsu
Номер по каталогу: KCD3
Страна: France
Аудиокодек: FLAC (*.flac)
Тип рипа: image+.cue
Битрейт аудио: lossless
Продолжительность: 60:68
Источник (релизер): собственный рип
Наличие сканов в содержимом раздачи: да
Треклист:
1. de qui?
2. de stijl/stijl2
3. HA HO
4. solo
5. a l`envers du monde
6. 135 partie 1
7. 135 partie 2
8. tot/do
9. les heros sont fatiques
10. LLL{long, lancinant, lenitif}
11. jsb sur 3eme sortie
12. n`zero
 
Лог создания рипа
Exact Audio Copy V0.99 prebeta 5 from 4. May 2009
EAC extraction logfile from 14. June 2011, 22:15
Happy House / Happy House
Used drive : Optiarc DVD RW AD-7243S Adapter: 0 ID: 1
Read mode : Secure
Utilize accurate stream : Yes
Defeat audio cache : Yes
Make use of C2 pointers : No
Read offset correction : 48
Overread into Lead-In and Lead-Out : No
Fill up missing offset samples with silence : Yes
Delete leading and trailing silent blocks : No
Null samples used in CRC calculations : Yes
Used interface : Native Win32 interface for Win NT & 2000
Used output format : User Defined Encoder
Selected bitrate : 768 kBit/s
Quality : High
Add ID3 tag : No
Command line compressor : C:\Program Files\Exact Audio Copy\FLAC\FLAC.EXE
Additional command line options : -6 -V -T "ARTIST=%a" -T "TITLE=%t" -T "ALBUM=%g" -T "DATE=%y" -T "TRACKNUMBER=%n" -T "GENRE=%m" -T "COMMENT=%e" %s -o %d
TOC of the extracted CD
Track | Start | Length | Start sector | End sector
---------------------------------------------------------
1 | 0:00.00 | 2:23.14 | 0 | 10738
2 | 2:23.14 | 4:53.45 | 10739 | 32758
3 | 7:16.59 | 4:32.37 | 32759 | 53195
4 | 11:49.21 | 1:40.31 | 53196 | 60726
5 | 13:29.52 | 6:55.36 | 60727 | 91887
6 | 20:25.13 | 8:14.13 | 91888 | 128950
7 | 28:39.26 | 4:26.09 | 128951 | 148909
8 | 33:05.35 | 7:16.42 | 148910 | 181651
9 | 40:22.02 | 5:52.03 | 181652 | 208054
10 | 46:14.05 | 4:28.69 | 208055 | 228223
11 | 50:42.74 | 10:27.60 | 228224 | 275308
12 | 61:10.59 | 2:03.06 | 275309 | 284539
Range status and errors
Selected range
Filename C:\Documents and Settings\S\Мои документы\Torrent раздача\Happy House - Happy House.wav
Copy aborted
End of status report
------------------------------------------------------------
Exact Audio Copy V0.99 prebeta 5 from 4. May 2009
EAC extraction logfile from 14. June 2011, 22:16
Happy House / Happy House
Used drive : Optiarc DVD RW AD-7243S Adapter: 0 ID: 1
Read mode : Secure
Utilize accurate stream : Yes
Defeat audio cache : Yes
Make use of C2 pointers : No
Read offset correction : 48
Overread into Lead-In and Lead-Out : No
Fill up missing offset samples with silence : Yes
Delete leading and trailing silent blocks : No
Null samples used in CRC calculations : Yes
Used interface : Native Win32 interface for Win NT & 2000
Used output format : User Defined Encoder
Selected bitrate : 768 kBit/s
Quality : High
Add ID3 tag : No
Command line compressor : C:\Program Files\Exact Audio Copy\FLAC\FLAC.EXE
Additional command line options : -6 -V -T "ARTIST=%a" -T "TITLE=%t" -T "ALBUM=%g" -T "DATE=%y" -T "TRACKNUMBER=%n" -T "GENRE=%m" -T "COMMENT=%e" %s -o %d
TOC of the extracted CD
Track | Start | Length | Start sector | End sector
---------------------------------------------------------
1 | 0:00.00 | 2:23.14 | 0 | 10738
2 | 2:23.14 | 4:53.45 | 10739 | 32758
3 | 7:16.59 | 4:32.37 | 32759 | 53195
4 | 11:49.21 | 1:40.31 | 53196 | 60726
5 | 13:29.52 | 6:55.36 | 60727 | 91887
6 | 20:25.13 | 8:14.13 | 91888 | 128950
7 | 28:39.26 | 4:26.09 | 128951 | 148909
8 | 33:05.35 | 7:16.42 | 148910 | 181651
9 | 40:22.02 | 5:52.03 | 181652 | 208054
10 | 46:14.05 | 4:28.69 | 208055 | 228223
11 | 50:42.74 | 10:27.60 | 228224 | 275308
12 | 61:10.59 | 2:03.06 | 275309 | 284539
Range status and errors
Selected range
Filename C:\Documents and Settings\S\Мои документы\Torrent раздача\Happy House - Happy House.wav
Copy aborted
End of status report
------------------------------------------------------------
Exact Audio Copy V0.99 prebeta 5 from 4. May 2009
EAC extraction logfile from 14. June 2011, 22:49
Happy House / Happy House
Used drive : Optiarc DVD RW AD-7243S Adapter: 0 ID: 1
Read mode : Secure
Utilize accurate stream : Yes
Defeat audio cache : Yes
Make use of C2 pointers : No
Read offset correction : 48
Overread into Lead-In and Lead-Out : No
Fill up missing offset samples with silence : Yes
Delete leading and trailing silent blocks : No
Null samples used in CRC calculations : Yes
Used interface : Native Win32 interface for Win NT & 2000
Used output format : User Defined Encoder
Selected bitrate : 768 kBit/s
Quality : High
Add ID3 tag : No
Command line compressor : C:\Program Files\Exact Audio Copy\FLAC\FLAC.EXE
Additional command line options : -6 -V -T "ARTIST=%a" -T "TITLE=%t" -T "ALBUM=%g" -T "DATE=%y" -T "TRACKNUMBER=%n" -T "GENRE=%m" -T "COMMENT=%e" %s -o %d
TOC of the extracted CD
Track | Start | Length | Start sector | End sector
---------------------------------------------------------
1 | 0:00.00 | 2:23.14 | 0 | 10738
2 | 2:23.14 | 4:53.45 | 10739 | 32758
3 | 7:16.59 | 4:32.37 | 32759 | 53195
4 | 11:49.21 | 1:40.31 | 53196 | 60726
5 | 13:29.52 | 6:55.36 | 60727 | 91887
6 | 20:25.13 | 8:14.13 | 91888 | 128950
7 | 28:39.26 | 4:26.09 | 128951 | 148909
8 | 33:05.35 | 7:16.42 | 148910 | 181651
9 | 40:22.02 | 5:52.03 | 181652 | 208054
10 | 46:14.05 | 4:28.69 | 208055 | 228223
11 | 50:42.74 | 10:27.60 | 228224 | 275308
12 | 61:10.59 | 2:03.06 | 275309 | 284539
Range status and errors
Selected range
Filename C:\Documents and Settings\S\Мои документы\Torrent раздача\Happy House - Happy House.wav
Peak level 99.9 %
Range quality 99.9 %
Test CRC F6590039
Copy CRC F6590039
Copy OK
No errors occurred
AccurateRip summary
Track 1 not present in database
Track 2 not present in database
Track 3 not present in database
Track 4 not present in database
Track 5 not present in database
Track 6 not present in database
Track 7 not present in database
Track 8 not present in database
Track 9 not present in database
Track 10 not present in database
Track 11 not present in database
Track 12 not present in database
None of the tracks are present in the AccurateRip database
End of status report
 
Содержание индексной карты (.CUE)
REM GENRE Avantgarde
REM DATE 2009
REM DISCID 9D0ED10C
REM COMMENT "ExactAudioCopy v0.99pb5"
PERFORMER "Happy House"
TITLE "Happy House"
FILE "Happy House - Happy House.flac" WAVE
TRACK 01 AUDIO
TITLE "de qui?"
PERFORMER "Happy House"
INDEX 01 00:00:00
TRACK 02 AUDIO
TITLE "de stijl/stijl2"
PERFORMER "Happy House"
INDEX 01 02:23:14
TRACK 03 AUDIO
TITLE "HA HO"
PERFORMER "Happy House"
INDEX 01 07:16:59
TRACK 04 AUDIO
TITLE "solo"
PERFORMER "Happy House"
INDEX 01 11:49:21
TRACK 05 AUDIO
TITLE "a l`envers du monde"
PERFORMER "Happy House"
INDEX 01 13:29:52
TRACK 06 AUDIO
TITLE "135 partie 1"
PERFORMER "Happy House"
INDEX 01 20:25:13
TRACK 07 AUDIO
TITLE "135 partie 2"
PERFORMER "Happy House"
INDEX 01 28:39:26
TRACK 08 AUDIO
TITLE "tot/bo"
PERFORMER "Happy House"
INDEX 01 33:05:35
TRACK 09 AUDIO
TITLE "les heros sont fatiques"
PERFORMER "Happy House"
INDEX 01 40:22:02
TRACK 10 AUDIO
TITLE "LLL {long, lancinant, lenitif}"
PERFORMER "Happy House"
INDEX 01 46:14:05
TRACK 11 AUDIO
TITLE "jsb sur 3eme sortie"
PERFORMER "Happy House"
INDEX 01 50:42:74
TRACK 12 AUDIO
TITLE "n`zero"
PERFORMER "Happy House"
INDEX 01 61:10:59
 
Состав
julien favreuille - sax
oliver benouit - guitars
nicolas mahieux - contrebasse
jean-luc landsweerdt - batterie
Any questions -> support@pro-jazz.com. По всем вопросам пишите -> support@pro-jazz.com
13:26
254
Нет комментариев. Ваш будет первым!