Вы используете незарегистрированную версию компонента "Вкладки"!

Поиск

(Avant-Garde Jazz) Geoff Serle - Severe Test (David Cross,Jon Dobie) - 1993, FLAC (image+.cue), lossless

(Avant-Garde Jazz) Geoff Serle - Severe Test (David Cross,Jon Dobie) - 1993, FLAC (image+.cue), lossless
Треклист:
Geoff Serle / Severe Test (David Cross,Jon Dobie)
Жанр: Avant-Garde Jazz
Страна-производитель диска: U.K.
Год издания: 1993
Издатель (лейбл): Systems Collusion Discs
Номер по каталогу: SCCD 8001
Страна: U.K.
Аудиокодек: FLAC (*.flac)
Тип рипа: image+.cue
Битрейт аудио: lossless
Продолжительность: 64:55
Источник (релизер): Rip с фирменного CD из собственной коллекции
Наличие сканов в содержимом раздачи: да
Треклист:
1. Anticipation 10:10
2. Severe Test 5:46
3. Voyage 2:50
4. Dream Photography 8:22
5. Balance Of Power 7:38
6. Shinjuku Switch 7:07
7. Assassin 1:00
8. Second Mind 9:26
9. Delete Complete 0:33
10. Pagoda 3:58
11. Severe Test (Reprise) 8:06
 
Лог создания рипа
Exact Audio Copy V1.0 beta 3 from 29. August 2011
Отчёт EAC об извлечении, выполненном 22. августа 2012, 20:19
Geoff Serle / Severe Test
Дисковод: MATSHITABD-MLT UJ-210S Adapter: 0 ID: 0
Режим чтения : Достоверность
Использование точного потока : Да
Отключение кэша аудио : Да
Использование указателей C2 : Нет
Коррекция смещения при чтении : 102
Способность читать области Lead-in и Lead-out : Нет
Заполнение пропущенных сэмплов тишиной : Да
Удаление блоков с тишиной в начале и конце : Нет
При вычислениях CRC использовались нулевые сэмплы : Да
Интерфейс : Встроенный Win32-интерфейс для Win NT/2000
Выходной формат : Внутренние WAV-операции
Формат сэмплов : 44.100 Гц; 16 бит; стерео
TOC извлечённого CD
Трек | Старт | Длительность | Начальный сектор | Конечный сектор
---------------------------------------------------------------------
1 | 0:00.32 | 10:10.15 | 32 | 45796
2 | 10:10.47 | 5:46.08 | 45797 | 71754
3 | 15:56.55 | 2:50.02 | 71755 | 84506
4 | 18:46.57 | 8:21.40 | 84507 | 122121
5 | 27:08.22 | 7:37.55 | 122122 | 156451
6 | 34:46.02 | 7:07.50 | 156452 | 188526
7 | 41:53.52 | 0:59.73 | 188527 | 193024
8 | 42:53.50 | 9:26.12 | 193025 | 235486
9 | 52:19.62 | 0:32.48 | 235487 | 237934
10 | 52:52.35 | 3:58.32 | 237935 | 255816
11 | 56:50.67 | 8:05.40 | 255817 | 292231
Характеристики диапазона извлечения и сообщения об ошибках
Выбранный диапазон
Имя файла H:\Temp\Geoff Serle - Severe Test\Geoff Serle - Severe Test.wav
Пиковый уровень 97.6 %
Скорость извлечения 4.2 X
Качество диапазона 100.0 %
CRC теста C64125D6
CRC копии C64125D6
Копирование... OK
Ошибок не произошло
AccurateRip: сводка
Трек 1 отсутствует в базе данных
Трек 2 отсутствует в базе данных
Трек 3 отсутствует в базе данных
Трек 4 отсутствует в базе данных
Трек 5 отсутствует в базе данных
Трек 6 отсутствует в базе данных
Трек 7 отсутствует в базе данных
Трек 8 отсутствует в базе данных
Трек 9 отсутствует в базе данных
Трек 10 отсутствует в базе данных
Трек 11 отсутствует в базе данных
Ни одного трека нет в базе AccurateRip
Конец отчёта
==== Контрольная сумма отчёта E4A769F0F2B7AAF51CEEAD4092FBB5B91E045E92CBF5B3A8EFA4743F7A9CE9B5 ====
 
Состав
Geoff Serle - drum machine,keyboards,percussion,samples,voice,tapes,piano
David Cross - zeta midi violin
Jon Dobie - guitar,saxes
Mark Hewins - digital guitar
Francine Luce - voice
Sheila Maloney - keyboards
Chiemi Nagata - voice
Elliott Sharp - doubleneck guitarbass
Pat Thomas - piano
Geoff Serle: http://www.the-edge.ws/serle/
Sonicphonics - zoot!: http://rutracker.org/forum/viewtopic.php?t=2090413
Radius - There is no Peace:http://rutracker.org/forum/viewtopic.php?t=4161391
Sonicphonics - Rotator: http://rutracker.org/forum/viewtopic.php?t=4161276
Radius - Sightseeing: http://rutracker.org/forum/viewtopic.php?t=4162330
Tek - San - Radio Tek - San: http://rutracker.org/forum/viewtopic.php?t=4162407
Research - The perpetual city: http://rutracker.org/forum/viewtopic.php?t=4163302
Research - Social Systems: http://rutracker.org/forum/viewtopic.php?t=4163339
Radius - Elevation: http://rutracker.org/forum/viewtopic.php?t=4166182
Radius - A Round Radius (The Best Of Radius): http://rutracker.org/forum/viewtopic.php?t=4166154
Sonicphonics - In The Blink Of An Eye (A Retrospective): http://rutracker.org/forum/viewtopic.php?t=4166312
Sonicphonics - Six: http://rutracker.org/forum/viewtopic.php?t=4166360
Sonicphonics - Dream Photography: http://rutracker.org/forum/viewtopic.php?t=4176215
Any questions -> support@pro-jazz.com. По всем вопросам пишите -> support@pro-jazz.com
03:10
224
Нет комментариев. Ваш будет первым!