Вы используете незарегистрированную версию компонента "Вкладки"!

Поиск

(Avant-garde Jazz, Fusion, Prog Rock) [CD] Umezu Kazutoki KIKI Band (Kido Natsuki, Hayakawa Takeharu, Joe Trump) - A Chrysalis' Dream - 2010, FLAC (tracks+.cue), lossless

(Avant-garde Jazz, Fusion, Prog Rock) [CD] Umezu Kazutoki KIKI Band (Kido Natsuki, Hayakawa Takeharu, Joe Trump) - A Chrysalis' Dream - 2010, FLAC (tracks+.cue), lossless
Треклист:
Umezu Kazutoki KIKI Band / A Chrysalis' Dream. Sanagi No Yume
Жанр: Avant-garde Jazz, Fusion, Prog Rock
Носитель: CD
Страна-производитель диска (релиза): Japan
Год издания: 2010
Издатель (лейбл): ZOTT Records
Номер по каталогу: 004
Аудиокодек: FLAC (*.flac)
Тип рипа: tracks+.cue
Битрейт аудио: lossless
Продолжительность: 52:56
Источник (релизер): cd
Наличие сканов в содержимом раздачи: нет
Треклист:
01. Jumina 8:45
02. Freight Train Skyrocket 3:59
03. A Chrysalis' Dream 14:10
04. Make Make 8:44
05. Gel Flow 6:00
06. Red Snow 11:10
 
Лог создания рипа
Exact Audio Copy V1.0 beta 3 from 29. August 2011
EAC extraction logfile from 26. January 2015, 16:02
Umezu Kazutoki Kiki Band / A Chrysalis' Dream
Used drive : ASUS DRW-24F1ST a Adapter: 0 ID: 0
Read mode : Secure
Utilize accurate stream : Yes
Defeat audio cache : Yes
Make use of C2 pointers : No
Read offset correction : 6
Overread into Lead-In and Lead-Out : No
Fill up missing offset samples with silence : Yes
Delete leading and trailing silent blocks : No
Null samples used in CRC calculations : Yes
Used interface : Native Win32 interface for Win NT & 2000
Gap handling : Appended to previous track
Used output format : User Defined Encoder
Selected bitrate : 320 kBit/s
Quality : High
Add ID3 tag : No
Command line compressor : D:\Programs\Exact Audio Copy\Flac\flac.exe
Additional command line options : -V -8 -T "Genre=%genre%" -T "Artist=%artist%" -T "Title=%title%" -T "Album=%albumtitle%" -T "Date=%year%" -T "Tracknumber=%tracknr%" -T "Comment=%comment%" %source%
TOC of the extracted CD
Track | Start | Length | Start sector | End sector
---------------------------------------------------------
1 | 0:00.00 | 8:46.52 | 0 | 39501
2 | 8:46.52 | 3:58.53 | 39502 | 57404
3 | 12:45.30 | 14:11.74 | 57405 | 121303
4 | 26:57.29 | 8:44.53 | 121304 | 160656
5 | 35:42.07 | 6:01.74 | 160657 | 187805
6 | 41:44.06 | 11:12.56 | 187806 | 238261
Track 1
Filename D:\EAC\01 Jumina.wav
Pre-gap length 0:00:02.00
Peak level 100.0 %
Extraction speed 5.6 X
Track quality 100.0 %
Test CRC A65010B3
Copy CRC A65010B3
Copy OK
Track 2
Filename D:\EAC\02 Freight Train Skyrocket.wav
Peak level 97.4 %
Extraction speed 5.1 X
Track quality 99.9 %
Test CRC 8A11E25D
Copy CRC 8A11E25D
Copy OK
Track 3
Filename D:\EAC\03 A Chrysalis' Dream.wav
Peak level 97.4 %
Extraction speed 7.3 X
Track quality 100.0 %
Test CRC 41F7C17D
Copy CRC 41F7C17D
Copy OK
Track 4
Filename D:\EAC\04 MakeMake.wav
Peak level 98.7 %
Extraction speed 8.0 X
Track quality 100.0 %
Test CRC 85CA8707
Copy CRC 85CA8707
Copy OK
Track 5
Filename D:\EAC\05 Gel Flow.wav
Peak level 97.4 %
Extraction speed 8.2 X
Track quality 100.0 %
Test CRC B219DA6F
Copy CRC B219DA6F
Copy OK
Track 6
Filename D:\EAC\06 Red Snow.wav
Peak level 97.1 %
Extraction speed 9.1 X
Track quality 100.0 %
Test CRC CF03EDD5
Copy CRC CF03EDD5
Copy OK
No errors occurred
End of status report
==== Log checksum DC9BAA6816E298F13B3A0DFA6FDF96F497F2F42D6E25810C7EB849C935B1415D ====
 
Содержание индексной карты (.CUE)
REM GENRE Jazz
REM DATE 2010
REM DISCID 4E0C6806
REM COMMENT "ExactAudioCopy v1.0b3"
PERFORMER "Umezu Kazutoki Kiki Band"
TITLE "A Chrysalis' Dream"
FILE "01 Jumina.wav" WAVE
TRACK 01 AUDIO
TITLE "Jumina"
PERFORMER "Umezu Kazutoki Kiki Band"
INDEX 01 00:00:00
FILE "02 Freight Train Skyrocket.wav" WAVE
TRACK 02 AUDIO
TITLE "Freight Train Skyrocket"
PERFORMER "Umezu Kazutoki Kiki Band"
INDEX 01 00:00:00
FILE "03 A Chrysalis' Dream.wav" WAVE
TRACK 03 AUDIO
TITLE "A Chrysalis' Dream"
PERFORMER "Umezu Kazutoki Kiki Band"
INDEX 01 00:00:00
FILE "04 MakeMake.wav" WAVE
TRACK 04 AUDIO
TITLE "MakeMake"
PERFORMER "Umezu Kazutoki Kiki Band"
INDEX 01 00:00:00
FILE "05 Gel Flow.wav" WAVE
TRACK 05 AUDIO
TITLE "Gel Flow"
PERFORMER "Umezu Kazutoki Kiki Band"
INDEX 01 00:00:00
FILE "06 Red Snow.wav" WAVE
TRACK 06 AUDIO
TITLE "Red Snow"
PERFORMER "Umezu Kazutoki Kiki Band"
INDEX 01 00:00:00
Доп. информация: Recording, Mixing, Mastering Sudio: "st robo". Recording Date: 2,3,4 June 2009
 
Состав
Bass – Hayakawa Takeharu
Drums, Percussion – Joe Trump
Guitars – Kido Natsuki
Alto & Soprano Sax, Clarinet, Bass Clarinet – Umezu Kazutoki
По всем вопросам пишите личное сообщение пользователю M0p94ok.
08:47
171
Нет комментариев. Ваш будет первым!