Вы используете незарегистрированную версию компонента "Вкладки"!

Поиск

(Avant-Garde Jazz, Free Jazz, Saxophone Jazz) David Murray Quartet - I Want to Talk About You - 1986, APE (image+.cue), lossless

Треклист:
David Murray Quartet / I Want to Talk About You
Жанр: Avant-Garde Jazz, Free Jazz, Saxophone Jazz
Страна-производитель диска: Italy
Год издания диска: 1986
Издатель (лейбл): Black Saint
Номер по каталогу: 120105-2
Страна: US Berkeley, CA
Аудиокодек: APE (*.ape)
Тип рипа: image+.cue
Битрейт аудио: lossless
Продолжительность: 00:56:12
Источник (релизер): dreadbull
Наличие сканов в содержимом раздачи: да
Треклист:
01. Heart To Heart [12:48]
02. Quads [06:57]
03. Red Car [08:37]
04. I Want To Talk About You [13:40]
05. Morning Song [14:10]
 
Лог создания рипа
Exact Audio Copy V1.0 beta 2 from 29. April 2011
EAC extraction logfile from 28. September 2011, 17:13
David Murray / I Want To Talk About You
Used drive : ASUS DRW-22B2L Adapter: 0 ID: 1
Read mode : Secure
Utilize accurate stream : Yes
Defeat audio cache : Yes
Make use of C2 pointers : No
Read offset correction : 6
Overread into Lead-In and Lead-Out : No
Fill up missing offset samples with silence : Yes
Delete leading and trailing silent blocks : No
Null samples used in CRC calculations : No
Used interface : Native Win32 interface for Win NT & 2000
Used output format : Internal WAV Routines
Sample format : 44.100 Hz; 16 Bit; Stereo
TOC of the extracted CD
Track | Start | Length | Start sector | End sector
---------------------------------------------------------
1 | 0:00.33 | 12:48.00 | 33 | 57632
2 | 12:48.33 | 6:58.00 | 57633 | 88982
3 | 19:46.33 | 8:37.00 | 88983 | 127757
4 | 28:23.33 | 13:40.00 | 127758 | 189257
5 | 42:03.33 | 14:10.00 | 189258 | 253007
Range status and errors
Selected range
Filename D:\Donkey Files\David Murray - I Want to Talk About You (1986, Black Saint) [eac-ape-scans] byDrBull\David Murray - I Want To Talk About You.wav
Peak level 96.8 %
Extraction speed 3.0 X
Range quality 99.9 %
Copy CRC CC516F80
Copy OK
No errors occurred
AccurateRip summary
Track 1 accurately ripped (confidence 8) [F8670A95] (AR v1)
Track 2 accurately ripped (confidence 8) [652D6122] (AR v1)
Track 3 accurately ripped (confidence 8) [AA00CBCE] (AR v1)
Track 4 accurately ripped (confidence 8) [278CAE93] (AR v1)
Track 5 accurately ripped (confidence 8) [7E5EA364] (AR v1)
All tracks accurately ripped
End of status report
==== Log checksum 3BF45A403B26E62236CAA95727532ED7FB617AE3267A616430076EEFEB8F84F1 ====
 
Содержание индексной карты (.CUE)
REM DISCID 3D0D2D05
REM COMMENT "ExactAudioCopy v1.0b2"
CATALOG 0000000000000
PERFORMER "David Murray"
TITLE "I Want To Talk About You"
FILE "David Murray - I Want To Talk About You.wav" WAVE
TRACK 01 AUDIO
TITLE "Heart To Heart"
PERFORMER "David Murray"
INDEX 00 00:00:00
INDEX 01 00:00:33
TRACK 02 AUDIO
TITLE "Quads"
PERFORMER "David Murray"
INDEX 01 12:48:33
TRACK 03 AUDIO
TITLE "Red Car"
PERFORMER "David Murray"
INDEX 01 19:46:33
TRACK 04 AUDIO
TITLE "I Want To Talk About You"
PERFORMER "David Murray"
INDEX 01 28:23:33
TRACK 05 AUDIO
TITLE "Morning Song"
PERFORMER "David Murray"
INDEX 01 42:03:33
 
Состав
David Murray - tenor sax, bass clarinet;
John Hicks - piano;
Ray Drummond - bass;
Ralph Peterson, Jr. - drums.
Any questions -> support@pro-jazz.com. По всем вопросам пишите -> support@pro-jazz.com
17:08
138
Нет комментариев. Ваш будет первым!