Вы используете незарегистрированную версию компонента "Вкладки"!

Поиск

(Avant-Garde Jazz / Free Jazz / Post-Bop) Steve Lacy Five - The Way (2 CD) - 1979, FLAC (image+.cue), lossless

(Avant-Garde Jazz / Free Jazz / Post-Bop) Steve Lacy Five - The Way (2 CD) - 1979, FLAC (image+.cue), lossless
Треклист:
Steve Lacy Five - The Way (2 CD)
Жанр: Avant-Garde Jazz / Free Jazz / Post-Bop
Год выпуска диска: 1979
Производитель диска: Hat Hut Records [Switzerland]
Аудио кодек: FLAC
Тип рипа: image+.cue
Битрейт аудио: lossless
Продолжительность: 47:19 + 68:15
Источник: оригинальный диск
Трэклист:
CD#1
1. Stamps (5:46)
2. Blinks (10:45)
3. Troubles (9:59)
4. Raps (11:31)
5. Dreams (9:17)
 
CD 1 - EAC log
Exact Audio Copy V0.99 prebeta 4 from 23. January 2008
EAC extraction logfile from 24. December 2009, 16:33
Steve Lacy Five / The Way - CD1
Used drive : YAMAHA CRW-F1E Adapter: 4 ID: 0
Read mode : Secure
Utilize accurate stream : Yes
Defeat audio cache : Yes
Make use of C2 pointers : No
Read offset correction : 733
Overread into Lead-In and Lead-Out : No
Fill up missing offset samples with silence : Yes
Delete leading and trailing silent blocks : No
Null samples used in CRC calculations : Yes
Used interface : Native Win32 interface for Win NT & 2000
Used output format : Internal WAV Routines
Sample format : 44.100 Hz; 16 Bit; Stereo
TOC of the extracted CD
Track | Start | Length | Start sector | End sector
---------------------------------------------------------
1 | 0:00.00 | 5:46.55 | 0 | 26004
2 | 5:46.55 | 10:44.69 | 26005 | 74373
3 | 16:31.49 | 9:59.13 | 74374 | 119311
4 | 26:30.62 | 11:31.04 | 119312 | 171140
5 | 38:01.66 | 9:17.49 | 171141 | 212964
Range status and errors
Selected range
Filename D:\!mTorrent razdachi\Steve Lacy Five_The Way\CD_1\Steve Lacy Five - The Way - CD1.wav
Peak level 99.0 %
Range quality 100.0 %
Test CRC 54E6FC4B
Copy CRC 54E6FC4B
Copy OK
No errors occurred
AccurateRip summary
Track 1 not present in database
Track 2 not present in database
Track 3 not present in database
Track 4 not present in database
Track 5 not present in database
None of the tracks are present in the AccurateRip database
End of status report
CD#2
1. Existence (8:40)
2. The Way (9:56)
3. Bone (7:45)
4. Name (12:57)
5. The Breath (12:00)
6. Life on Its Way (11:05)
7. Swiss Duck (5:53)
 
CD 2 - EAC log
Exact Audio Copy V0.99 prebeta 4 from 23. January 2008
EAC extraction logfile from 24. December 2009, 17:19
Steve Lacy Five / The Way -- CD2
Used drive : YAMAHA CRW-F1E Adapter: 4 ID: 0
Read mode : Secure
Utilize accurate stream : Yes
Defeat audio cache : Yes
Make use of C2 pointers : No
Read offset correction : 733
Overread into Lead-In and Lead-Out : No
Fill up missing offset samples with silence : Yes
Delete leading and trailing silent blocks : No
Null samples used in CRC calculations : Yes
Used interface : Native Win32 interface for Win NT & 2000
Used output format : Internal WAV Routines
Sample format : 44.100 Hz; 16 Bit; Stereo
TOC of the extracted CD
Track | Start | Length | Start sector | End sector
---------------------------------------------------------
1 | 0:00.00 | 8:40.22 | 0 | 39021
2 | 8:40.22 | 9:55.51 | 39022 | 83697
3 | 18:35.73 | 7:44.26 | 83698 | 118523
4 | 26:20.24 | 12:56.61 | 118524 | 176784
5 | 39:17.10 | 12:00.20 | 176785 | 230804
6 | 51:17.30 | 11:04.36 | 230805 | 280640
7 | 62:21.66 | 5:53.71 | 280641 | 307186
Range status and errors
Selected range
Filename D:\!mTorrent razdachi\Steve Lacy Five_The Way\CD_2\Steve Lacy Five - The Way - CD2.wav
Peak level 99.0 %
Range quality 99.9 %
Test CRC 8AC95875
Copy CRC 8AC95875
Copy OK
No errors occurred
AccurateRip summary
Track 1 accurately ripped (confidence 1) [6D6A409E]
Track 2 accurately ripped (confidence 1) [A45389E4]
Track 3 accurately ripped (confidence 1) [27FD2538]
Track 4 accurately ripped (confidence 1) [08E43891]
Track 5 accurately ripped (confidence 1) [D601FFE8]
Track 6 accurately ripped (confidence 1) [65843BCF]
Track 7 accurately ripped (confidence 1) [E6D5EA21]
All tracks accurately ripped
End of status report
Доп. информация:
Steve Lacy — soprano saxophone
Steve Potts — alto & soprano saxophone
Irene Aebi — cello, violin & voice
Kent Carter — double bass
Oliver Johnson — drums
all compositions by Steve Lacy
words on Dreams by Brion Gysin
Recorded in concert January 23, 1979 at Stadttheater Basel, Switzerland
Рецензии:
Any questions -> support@pro-jazz.com. По всем вопросам пишите -> support@pro-jazz.com
17:35
259
Нет комментариев. Ваш будет первым!