Вы используете незарегистрированную версию компонента "Вкладки"!

Поиск

(Avant-Garde Jazz, Free Jazz, Post-Bop) Don Pullen - The Best Of: The Blue Note Years - 1997, FLAC (image+.cue), lossless

(Avant-Garde Jazz, Free Jazz, Post-Bop) Don Pullen - The Best Of: The Blue Note Years - 1997, FLAC (image+.cue), lossless
Треклист:
Don Pullen - The Best Of: The Blue Note Years
Жанр: Avant-Garde Jazz, Free Jazz, Post-Bop
Страна-производитель диска: EU
Год издания диска: 1997
Издатель (лейбл): Blue Note
Номер по каталогу: 7243 8 23513 2 0
Страна: США
Аудиокодек: FLAC (*.flac)
Тип рипа: image+.cue
Битрейт аудио: lossless
Продолжительность: 67:43
Источник (релизер): Bezz (avaxhome)
Наличие сканов в содержимом раздачи: да
Треклист:
01. Song from the Old Country (Pullen) - 8:14
02. Sing Me a Song Everlasting (Pullen) - 10:31
03. New Beginnings (Pullen) - 6:22
04. Jana's Delight (Pullen) - 6:00
05. Indio Gitano (Pullen) - 9:43
06. Andre's Ups and Downs (Pullen) - 5:23
07. Reservation Blues (Kenmille-Pullen) - 6:44
08. El Matador (Pullen) - 6:06
09. Ode to Life (Pullen) - 8:40
Recorded in 1986-1995.
 
Лог создания рипа
Exact Audio Copy V0.99 prebeta 5 from 4. May 2009
EAC extraction logfile from 22. May 2011, 15:32
Don Pullen / Blue Note Years (The Best Of) {Blue Note}
Used drive : ASUS DRW-1608P3S Adapter: 0 ID: 1
Read mode : Secure
Utilize accurate stream : Yes
Defeat audio cache : Yes
Make use of C2 pointers : No
Read offset correction : 48
Overread into Lead-In and Lead-Out : No
Fill up missing offset samples with silence : Yes
Delete leading and trailing silent blocks : No
Null samples used in CRC calculations : Yes
Used interface : Native Win32 interface for Win NT & 2000
Used output format : Internal WAV Routines
Sample format : 44.100 Hz; 16 Bit; Stereo
TOC of the extracted CD
Track | Start | Length | Start sector | End sector
---------------------------------------------------------
1 | 0:00.00 | 8:14.00 | 0 | 37049
2 | 8:14.00 | 10:31.52 | 37050 | 84426
3 | 18:45.52 | 6:22.70 | 84427 | 113146
4 | 25:08.47 | 6:00.03 | 113147 | 140149
5 | 31:08.50 | 9:43.17 | 140150 | 183891
6 | 40:51.67 | 5:23.20 | 183892 | 208136
7 | 46:15.12 | 6:44.58 | 208137 | 238494
8 | 52:59.70 | 6:06.22 | 238495 | 265966
9 | 59:06.17 | 8:40.33 | 265967 | 304999
Range status and errors
Selected range
Filename D:\Don Pullen - Blue Note Years (The Best Of) {Blue Note}.wav
Peak level 99.9 %
Range quality 100.0 %
Test CRC 798E871C
Copy CRC 798E871C
Copy OK
No errors occurred
AccurateRip summary
Track 1 cannot be verified as accurate (confidence 2) [2D169590], AccurateRip returned [4C4F6FAC]
Track 2 cannot be verified as accurate (confidence 2) [18D7EFA6], AccurateRip returned [2D152BBA]
Track 3 cannot be verified as accurate (confidence 2) [9FBF6832], AccurateRip returned [BD039B76]
Track 4 cannot be verified as accurate (confidence 2) [E97DBCAC], AccurateRip returned [74B3D472]
Track 5 cannot be verified as accurate (confidence 2) [AAB14E30], AccurateRip returned [D56CE2E2]
Track 6 cannot be verified as accurate (confidence 2) [80999CDA], AccurateRip returned [3865ECE8]
Track 7 cannot be verified as accurate (confidence 2) [37B7471B], AccurateRip returned [50F8C2F9]
Track 8 cannot be verified as accurate (confidence 2) [0B003E71], AccurateRip returned [B134FA11]
Track 9 cannot be verified as accurate (confidence 2) [39E519B5], AccurateRip returned [6B6A11B5]
No tracks could be verified as accurate
You may have a different pressing from the one(s) in the database
End of status report
 
Содержание индексной карты (.CUE)
REM GENRE Jazz
REM DATE 1997
REM DISCID 7D0FE209
REM COMMENT "ExactAudioCopy v0.99pb5"
PERFORMER "Don Pullen"
TITLE "The Best Of: The Blue Note Years"
FILE "Don Pullen - The Best Of- The Blue Note Years.wav" WAVE
TRACK 01 AUDIO
TITLE "Song from the Old Country"
PERFORMER "Don Pullen"
INDEX 01 00:00:00
TRACK 02 AUDIO
TITLE "Sing Me a Song Everlasting"
PERFORMER "Don Pullen"
INDEX 00 08:11:55
INDEX 01 08:14:00
TRACK 03 AUDIO
TITLE "New Beginnings"
PERFORMER "Don Pullen"
INDEX 00 18:45:47
INDEX 01 18:45:52
TRACK 04 AUDIO
TITLE "Jana's Delight"
PERFORMER "Don Pullen"
INDEX 00 25:08:40
INDEX 01 25:08:47
TRACK 05 AUDIO
TITLE "Indio Gitano"
PERFORMER "Don Pullen"
INDEX 00 31:07:02
INDEX 01 31:08:50
TRACK 06 AUDIO
TITLE "Andre's Ups and Downs"
PERFORMER "Don Pullen"
INDEX 00 40:49:40
INDEX 01 40:51:67
TRACK 07 AUDIO
TITLE "Reservation Blues"
PERFORMER "Don Pullen"
INDEX 00 46:12:52
INDEX 01 46:15:12
TRACK 08 AUDIO
TITLE "El Matador"
PERFORMER "Don Pullen"
INDEX 00 52:59:05
INDEX 01 52:59:70
TRACK 09 AUDIO
TITLE "Ode to Life"
PERFORMER "Don Pullen"
INDEX 00 59:03:22
INDEX 01 59:06:17
 
Лог проверки качества
auCDtect: CD records authenticity detector, version 0.8.2
Copyright (c) 2004 Oleg Berngardt. All rights reserved.
Copyright (c) 2004 Alexander Djourik. All rights reserved.
------------------------------------------------------------
Processing file: [Don Pullen - The Best Of- The Blue Note Years.wav]
Detected average hi-boundary frequency: 2.044130e+004 Hz
Detected average lo-boundary frequency: 1.438737e+004 Hz
Detected average hi-cut frequency: 2.110812e+004 Hz
Detected average lo-cut frequency: 1.171973e+004 Hz
Maximum probablis boundary frequency: 2.189100e+004 Hz
Coefficient of nonlinearity of a phase: 2.690745e-002
First order smothness: 4.007897e-001
Second order smothness: 6.525632e-001
------------------------------------------------------------
This track looks like CDDA with probability 100%
 
Review by Stephen Thomas Erlewine
The Best of Don Pullen collects nine highlights from Don Pullen's 11 years with Blue Note. Spanning the late '80s and early '90s, the compilation includes tracks culled from the pianist's time with the George Adams Quartet, his trio albums (one with Gary Peacock, one with Tony Williams) and cuts he recorded with his group the African-Brazilian Connection. While his original recordings remain the best way to understand his achievements, this collection is a good introduction to his style for the curious, featuring such titles as "Song from the Old Country," "New Beginnings," "Jana's Delight," "Indio Gitano," "Reservation Blues," "El Matador" and "Andre's Ups and Downs."
Any questions -> support@pro-jazz.com. По всем вопросам пишите -> support@pro-jazz.com
21:12
162
Нет комментариев. Ваш будет первым!