Вы используете незарегистрированную версию компонента "Вкладки"!

Поиск

(Avant-Garde Jazz, Free Jazz, Post-Bop) [CD] John Coltrane - Offering: Live at Temple University (1966) (2CD) - 2014, FLAC (tracks+.cue), lossless

(Avant-Garde Jazz, Free Jazz, Post-Bop) [CD] John Coltrane - Offering: Live at Temple University (1966) (2CD) - 2014, FLAC (tracks+.cue), lossless
Треклист:
John Coltrane - Offering: Live at Temple University
Жанр: Avant-Garde Jazz, Free Jazz, Post-Bop
Носитель: CD
Страна-производитель диска: США
Год издания: 2014
Издатель (лейбл): Resonance
Номер по каталогу: B0019632-02
Аудиокодек: FLAC (*.flac)
Тип рипа: tracks+.cue
Битрейт аудио: lossless
Продолжительность: 1:31:51
Источник (релизер): eminenz (what)
Наличие сканов в содержимом раздачи: да
 
CD1 {42:43}
01. Naima (Coltrane) - 16:31
02. Crescent (Coltrane) - 26:12
 
Лог создания рипа
Exact Audio Copy V1.0 beta 3 from 29. August 2011
EAC extraction logfile from 23. September 2014, 18:49
John Coltrane / Offering: Live At Temple University (CD1)
Used drive : ATAPI iHAS124 B Adapter: 2 ID: 1
Read mode : Secure
Utilize accurate stream : Yes
Defeat audio cache : Yes
Make use of C2 pointers : No
Read offset correction : 6
Overread into Lead-In and Lead-Out : No
Fill up missing offset samples with silence : Yes
Delete leading and trailing silent blocks : No
Null samples used in CRC calculations : Yes
Used interface : Native Win32 interface for Win NT & 2000
Gap handling : Appended to previous track
Used output format : User Defined Encoder
Selected bitrate : 1024 kBit/s
Quality : High
Add ID3 tag : No
Command line compressor : C:\Program Files (x86)\FLAC Frontend\tools\flac.exe
Additional command line options : -8 -V -T "ARTIST=%artist%" -T "TITLE=%title%" -T "ALBUM=%albumtitle%" -T "DATE=%year%" -T "TRACKNUMBER=%tracknr%" -T "TOTALTRACKS=%numtracks%" -T "GENRE=%genre%" -T "ALBUMARTIST=%albumartist%" -T "ALBUM ARTIST=%albumartist%" -T "COMMENT=EAC Secure Mode, Test & Copy, AccurateRip, FLAC -8" %source%
TOC of the extracted CD
Track | Start | Length | Start sector | End sector
---------------------------------------------------------
1 | 0:00.00 | 16:31.28 | 0 | 74352
2 | 16:31.28 | 26:12.09 | 74353 | 192261
Track 1
Filename C:\John Coltrane - Offering. Live At Temple University (2014) [2CD] {Impulse!}\CD1\01 - Naima.wav
Pre-gap length 0:00:02.00
Peak level 85.3 %
Extraction speed 5.0 X
Track quality 100.0 %
Test CRC 3D9028FA
Copy CRC 3D9028FA
Track not present in AccurateRip database
Copy OK
Track 2
Filename C:\John Coltrane - Offering. Live At Temple University (2014) [2CD] {Impulse!}\CD1\02 - Crescent.wav
Peak level 87.9 %
Extraction speed 6.7 X
Track quality 100.0 %
Test CRC CD112BE0
Copy CRC CD112BE0
Track not present in AccurateRip database
Copy OK
None of the tracks are present in the AccurateRip database
No errors occurred
End of status report
==== Log checksum 7F732DC0CBAC9329FAE23DA34F897F0B904786B9C47245E8EED85BE932EDCFAE ====
 
Содержание индексной карты (.CUE)
REM GENRE Jazz
REM DATE 1966
REM DISCID 170A0302
REM COMMENT "ExactAudioCopy v1.0b3"
PERFORMER "John Coltrane"
TITLE "Offering: Live at Temple University CD1"
FILE "01 - Naima.wav" WAVE
TRACK 01 AUDIO
TITLE "Naima"
PERFORMER "John Coltrane"
INDEX 01 00:00:00
FILE "02 - Crescent.wav" WAVE
TRACK 02 AUDIO
TITLE "Crescent"
PERFORMER "John Coltrane"
INDEX 01 00:00:00
 
CD2 {49:07}
01. Leo (Coltrane) - 21:29
02. Offering (Coltrane) - 4:19
03. My Favorite Things (Rodgers-Hammerstein) - 23:19
 
Лог создания рипа
Exact Audio Copy V1.0 beta 3 from 29. August 2011
EAC extraction logfile from 23. September 2014, 19:08
John Coltrane / Offering: Live At Temple University (CD2)
Used drive : ATAPI iHAS124 B Adapter: 2 ID: 1
Read mode : Secure
Utilize accurate stream : Yes
Defeat audio cache : Yes
Make use of C2 pointers : No
Read offset correction : 6
Overread into Lead-In and Lead-Out : No
Fill up missing offset samples with silence : Yes
Delete leading and trailing silent blocks : No
Null samples used in CRC calculations : Yes
Used interface : Native Win32 interface for Win NT & 2000
Gap handling : Appended to previous track
Used output format : User Defined Encoder
Selected bitrate : 1024 kBit/s
Quality : High
Add ID3 tag : No
Command line compressor : C:\Program Files (x86)\FLAC Frontend\tools\flac.exe
Additional command line options : -8 -V -T "ARTIST=%artist%" -T "TITLE=%title%" -T "ALBUM=%albumtitle%" -T "DATE=%year%" -T "TRACKNUMBER=%tracknr%" -T "TOTALTRACKS=%numtracks%" -T "GENRE=%genre%" -T "ALBUMARTIST=%albumartist%" -T "ALBUM ARTIST=%albumartist%" -T "COMMENT=EAC Secure Mode, Test & Copy, AccurateRip, FLAC -8" %source%
TOC of the extracted CD
Track | Start | Length | Start sector | End sector
---------------------------------------------------------
1 | 0:00.00 | 21:29.00 | 0 | 96674
2 | 21:29.00 | 4:19.09 | 96675 | 116108
3 | 25:48.09 | 23:19.05 | 116109 | 221038
Track 1
Filename C:\John Coltrane - Offering. Live At Temple University (2014) [2CD] {Impulse!}\CD2\01 - Leo.wav
Pre-gap length 0:00:02.00
Peak level 89.7 %
Extraction speed 5.2 X
Track quality 100.0 %
Test CRC 3C23C7C9
Copy CRC 3C23C7C9
Track not present in AccurateRip database
Copy OK
Track 2
Filename C:\John Coltrane - Offering. Live At Temple University (2014) [2CD] {Impulse!}\CD2\02 - Offering.wav
Peak level 77.1 %
Extraction speed 5.6 X
Track quality 100.0 %
Test CRC 7D765EF7
Copy CRC 7D765EF7
Track not present in AccurateRip database
Copy OK
Track 3
Filename C:\John Coltrane - Offering. Live At Temple University (2014) [2CD] {Impulse!}\CD2\03 - My Favorite Things.wav
Peak level 91.7 %
Extraction speed 6.9 X
Track quality 99.9 %
Test CRC 2B4BDC05
Copy CRC 2B4BDC05
Track not present in AccurateRip database
Copy OK
None of the tracks are present in the AccurateRip database
No errors occurred
End of status report
==== Log checksum 3CE65F4007DB86D15FACB90D37448BAEE96F5EA2720E60DBC06CC718AAFB2DF7 ====
 
Содержание индексной карты (.CUE)
REM GENRE Jazz
REM DATE 1966
REM DISCID 1A0B8303
REM COMMENT "ExactAudioCopy v1.0b3"
PERFORMER "John Coltrane"
TITLE "Offering: Live at Temple University CD2"
FILE "01 - Leo.wav" WAVE
TRACK 01 AUDIO
TITLE "Leo"
PERFORMER "John Coltrane"
INDEX 01 00:00:00
FILE "02 - Offering.wav" WAVE
TRACK 02 AUDIO
TITLE "Offering"
PERFORMER "John Coltrane"
INDEX 01 00:00:00
FILE "03 - My Favorite Things.wav" WAVE
TRACK 03 AUDIO
TITLE "My Favorite Things"
PERFORMER "John Coltrane"
INDEX 01 00:00:00
 
Review by Matt Collar
Recorded eight months before his death from liver cancer, the concert album Offering: Live at Temple University features legendary jazz saxophonist John Coltrane performing with his quintet in his hometown of Philadelphia on November 11, 1966. Although it's been available in various incomplete bootleg forms over the years, Resonance's Offering is the first official, complete, and fully mastered version to be released. Produced from a set of long-lost master tapes rediscovered by Coltrane's son, saxophonist Ravi Coltrane, Offering showcases the late jazz innovator's final ensemble featuring his wife, keyboardist Alice Coltrane, saxophonist Pharoah Sanders, bassist Sonny Johnson (sitting in for Jimmy Garrison), drummer Rashied Ali, and a coterie of local guest musicians. This was Coltrane's main lineup after the departure of pianist McCoy Tyner and drummer Elvin Jones only a few months prior to this concert. However, rather than a lesser version of Coltrane's once classic quartet, this ensemble seems to have codified the spiritually infused free jazz, modal, and Indian raga influences Coltrane had been exploring since the early '60s. Gone was the internal band discord over the use of two drummers (Tyner and Jones' purported bugaboo), replaced by an ensemble of like-minded musicians unified as much by spiritual concerns as creative ones. Beginning with an epic version of his classic 1960 composition "Naima," Coltrane and his group perform with a sustained intensity and creative focus that would soon become a major element of Coltrane lore after his passing. Yet, here they are: the sheets of arpeggiated sound gushing from his saxophone in a burnished oaken moan, the frenetic squelch of Sanders and Coltrane's dual opening to "Leo," and the subsequent mid-track "vocalizations" -- long debated in almost mythological terms by fans who saw Coltrane live -- captured here in all their unnerving, otherworldly glory. And while there certainly is something otherworldly and transformative about Offering, it's also utterly tangible, visceral, and organically Technicolor in the way only the best live performances are. There's also a balance to the performances on Offering. By 1966, Coltrane had become infamous for his band's extended solos, purportedly shutting down clubs with cacophonous 20-minute improvisations. The longest song here, an inspired reworking of his indelible 1960 version of "My Favorite Things," clocks in at 23:20 and reveals an ensemble fully capable of guiding an audience on a logical, if no less adventurous, journey through well-charted musical territory. Listening to Alice Coltrane propel herself through "My Favorite Things," her sparkling, hard bop-inflected keyboard lines as generously abundant as her husband's, is to experience something strangely familiar yet completely new. By the time you get to 18-year-old college student Steve Knoblauch's utterly unhinged guest improvisation, you aren't so much confused as astounded that the group members lose none of their euphoric intensity while they buoy him, his throaty aggression bridging toward Coltrane's laser-fire soprano return. Ultimately, though we will never know where Coltrane would have taken his music had he lived, Offering works as a live culmination of Coltrane's musical journey, a homecoming and spiritual communion with the deep, creative forces that drove him right until the end of his life and, based on the music here, one can only assume beyond.
 
Состав
John Coltrane - soprano saxophone, tenor saxophone, flute, vocals
Pharoah Sanders - tenor saxophone, piccolo
Alice Coltrane - piano
Sonny Johnson - bass
Rashied Ali - drums
Steve Knoblauch, Arnold Joyner - alto saxophone
Umar Ali, Robert Kenyatta, Charles Brown - conga
Algie DeWitt - bata drum
Recorded at Mitten Hall, Temple University, Philadelphia, PA on November 11, 1966.
По всем вопросам пишите личное сообщение пользователю M0p94ok.
04:36
139
Нет комментариев. Ваш будет первым!