Вы используете незарегистрированную версию компонента "Вкладки"!

Поиск

(Avant-Garde Jazz, Free Jazz) Paul Bley & Jesper Lundgaard - Live Again - 1987, APE (image+.cue), lossless

(Avant-Garde Jazz, Free Jazz) Paul Bley & Jesper Lundgaard - Live Again - 1987, APE (image+.cue), lossless
Треклист:
Paul Bley & Jesper Lundgaard - Live Again
Жанр: Avant-Garde Jazz, Free Jazz
Год выпуска диска: 1987
Производитель диска: SteepleChase (SCCD 31230)
Аудио кодек: APE
Тип рипа: image+.cue
Битрейт аудио: lossless
Продолжительность: 53:03
Трэклист:
01. Ictus (Carla Bley)
02. Pent-Up House (Sonny Rollins)
03. Diane (Rapee)
04. If I'm Lucky (J. Myrow-E. DeLange)
05. Blues Waltz (Paul Bley)
06. Rebecca (Paul Bley)
07. All the Things You Are (Jerome Kern)
08. If I Loved You (Richard Rodgers)
09. What'll I Do? (Irving Berlin)
10. Willow Weep for Me (Ann Ronell)
Personnel:
Paul Bley - piano
Jesper Lundgaard - bass
 
EAC.log
Код:
Exact Audio Copy V0.99 prebeta 4 from 23. January 2008
EAC extraction logfile from 27. April 2009, 20:06
Paul Bley & Jesper Lundgaard / Live Again
Used drive  : PHILIPS DVD+-RW DVD8801   Adapter: 1  ID: 0
Read mode               : Secure
Utilize accurate stream : Yes
Defeat audio cache      : Yes
Make use of C2 pointers : No
Read offset correction                      : 618
Overread into Lead-In and Lead-Out          : No
Fill up missing offset samples with silence : Yes
Delete leading and trailing silent blocks   : No
Null samples used in CRC calculations       : Yes
Used interface                              : Native Win32 interface for Win NT & 2000
Used output format : Internal WAV Routines
Sample format      : 44.100 Hz; 16 Bit; Stereo
TOC of the extracted CD
     Track |   Start  |  Length  | Start sector | End sector
    ---------------------------------------------------------
        1  |  0:00.00 |  3:27.12 |         0    |    15536
        2  |  3:27.12 |  7:11.55 |     15537    |    47916
        3  | 10:38.67 |  6:34.48 |     47917    |    77514
        4  | 17:13.40 |  6:31.60 |     77515    |   106899
        5  | 23:45.25 |  4:26.35 |    106900    |   126884
        6  | 28:11.60 |  6:05.70 |    126885    |   154329
        7  | 34:17.55 |  2:55.10 |    154330    |   167464
        8  | 37:12.65 |  6:39.25 |    167465    |   197414
        9  | 43:52.15 |  4:58.40 |    197415    |   219804
       10  | 48:50.55 |  4:12.55 |    219805    |   238759
Range status and errors
Selected range
     Filename C:\Paul Bley & Jesper Lundgaard - Live Again (Steeplechase) [Eac,ape,cue,covers]\Paul Bley & Jesper Lundgaard - Live Again.wav
     Peak level 100.0 %
     Range quality 100.0 %
     Copy CRC 22959EB7
     Copy OK
No errors occurred
AccurateRip summary
Track  1  not present in database
Track  2  not present in database
Track  3  not present in database
Track  4  not present in database
Track  5  not present in database
Track  6  not present in database
Track  7  not present in database
Track  8  not present in database
Track  9  not present in database
Track 10  not present in database
None of the tracks are present in the AccurateRip database
End of status report
Обложки есть. Благодарности за релиз - bladerunner (hqshare).
Any questions -> support@pro-jazz.com. По всем вопросам пишите -> support@pro-jazz.com
13:05
144
Нет комментариев. Ваш будет первым!