Вы используете незарегистрированную версию компонента "Вкладки"!

Поиск

(Avant-Garde Jazz, Free Jazz, Hard Bop) [CD] John Coltrane - A Love Supreme - 1964 (2013 Platinum SHM-CD), FLAC (tracks+.cue), lossless

(Avant-Garde Jazz, Free Jazz, Hard Bop) [CD] John Coltrane - A Love Supreme - 1964 (2013 Platinum SHM-CD), FLAC (tracks+.cue), lossless
Треклист:
John Coltrane - A Love Supreme
Жанр: Avant-Garde Jazz, Free Jazz, Hard Bop
Носитель: CD
Страна-производитель диска (релиза): Япония
Год издания: 2013
Издатель (лейбл): Impulse!/Verve/Universal
Номер по каталогу: UCCU-40003
Страна исполнителя (группы): США
Аудиокодек: FLAC (*.flac)
Тип рипа: tracks+.cue
Битрейт аудио: lossless
Продолжительность: 33:01
Источник (релизер): elysofly (what)
Наличие сканов в содержимом раздачи: нет
Треклист:
01. Part 1: Acknowledgement (Coltrane) - 7:48
02. Part 2: Resolution (Coltrane) - 7:24
03. Part 3: Pursuance/Part 4: Psalm (Coltrane) - 17:49
Состав:
John Coltrane - tenor saxophone
McCoy Tyner - piano
Jimmy Garrison - bass
Elvin Jones - drums
Recorded at Van Gelder Studios, Englewood Cliffs, NJ on December 9, 1964.
 
Лог создания рипа
X Lossless Decoder version 20151214 (149.1)
XLD extraction logfile from 2016-02-01 15:27:22 -0500
John Coltrane / A Love Supreme
Used drive : MATSHITA DVD-R UJ-8A8 (revision HB14)
Media type : Pressed CD
Ripper mode : XLD Secure Ripper
Disable audio cache : OK for the drive with a cache less than 1375KiB
Make use of C2 pointers : NO
Read offset correction : 102
Max retry count : 20
Gap status : Analyzed, Appended
TOC of the extracted CD
Track | Start | Length | Start sector | End sector
---------------------------------------------------------
1 | 00:00:00 | 07:47:58 | 0 | 35082
2 | 07:47:58 | 07:23:40 | 35083 | 68347
3 | 15:11:23 | 17:48:65 | 68348 | 148512
AccurateRip Summary (DiscID: 0003d828-000d438f-2207bc03)
Track 01 : OK (v2, confidence 3/3)
Track 02 : OK (v2, confidence 3/3)
Track 03 : OK (v2, confidence 3/3)
->All tracks accurately ripped.
All Tracks
Album gain : 0.95 dB
Peak : 0.715729
Statistics
Read error : 0
Jitter error (maybe fixed) : 0
Retry sector count : 0
Damaged sector count : 0
Track 01
Filename : /Users/elysofly/Music/XLD Rips/01 John Coltrane - Acknowledgement.flac
Pre-gap length : 00:02:00
Track gain : 2.17 dB
Peak : 0.554352
CRC32 hash (test run) : 3ECC14F2
CRC32 hash : 3ECC14F2
CRC32 hash (skip zero) : 98CD7CFE
AccurateRip v1 signature : A8508555
AccurateRip v2 signature : ACFB8D2E
->Accurately ripped (v2, confidence 3/3)
Statistics
Read error : 0
Jitter error (maybe fixed) : 0
Retry sector count : 0
Damaged sector count : 0
Track 02
Filename : /Users/elysofly/Music/XLD Rips/02 John Coltrane - Resolution.flac
Pre-gap length : 00:03:39
Track gain : 0.19 dB
Peak : 0.618744
CRC32 hash (test run) : 9C21692E
CRC32 hash : 9C21692E
CRC32 hash (skip zero) : CC1FBE83
AccurateRip v1 signature : 8675FC5B
AccurateRip v2 signature : 10805716
->Accurately ripped (v2, confidence 3/3)
Statistics
Read error : 0
Jitter error (maybe fixed) : 0
Retry sector count : 0
Damaged sector count : 0
Track 03
Filename : /Users/elysofly/Music/XLD Rips/03 John Coltrane - PursuanceпјЏPart4 - Psalm.flac
Pre-gap length : 00:03:07
Track gain : 1.02 dB
Peak : 0.715729
CRC32 hash (test run) : 1A5DD534
CRC32 hash : 1A5DD534
CRC32 hash (skip zero) : 8184CFEE
AccurateRip v1 signature : 1EBB38D4
AccurateRip v2 signature : 10E0A517
->Accurately ripped (v2, confidence 3/3)
Statistics
Read error : 0
Jitter error (maybe fixed) : 0
Retry sector count : 0
Damaged sector count : 0
No errors occurred
End of status report
-----BEGIN XLD SIGNATURE-----
XfduUF0RHS_CnaZg.02UqwzT8g9nve2r7MByhhj1DlzYML6wSJHg8MHV1t_EPAsl24uyMYFqVjS4Y_JaiVmpErjc28MRIePgQFPyRUO
-----END XLD SIGNATURE-----
 
Содержание индексной карты (.CUE)
TITLE "A Love Supreme"
PERFORMER "John Coltrane"
CATALOG 0011105015523
REM GENRE "Jazz"
REM DATE "1964"
REM DISCID 2207BC03
REM REPLAYGAIN_ALBUM_GAIN 0.95 dB
REM REPLAYGAIN_ALBUM_PEAK 0.715729
FILE "01 - Acknowledgement.flac" WAVE
TRACK 01 AUDIO
TITLE "Acknowledgement"
ISRC USMC16490243
REM REPLAYGAIN_TRACK_GAIN 2.17 dB
REM REPLAYGAIN_TRACK_PEAK 0.554352
INDEX 01 00:00:00
TRACK 02 AUDIO
TITLE "Resolution"
ISRC USMC16454391
REM REPLAYGAIN_TRACK_GAIN 0.19 dB
REM REPLAYGAIN_TRACK_PEAK 0.618744
INDEX 00 07:44:19
FILE "02 - Resolution.flac" WAVE
INDEX 01 00:00:00
TRACK 03 AUDIO
TITLE "Pursuance/Psalm"
ISRC USMC16455460
REM REPLAYGAIN_TRACK_GAIN 1.02 dB
REM REPLAYGAIN_TRACK_PEAK 0.715729
INDEX 00 07:20:33
FILE "03 - Pursuance,Psalm.flac" WAVE
INDEX 01 00:00:00
 
Отчет CUETools
[CUETools log; Date: 14.03.2016 0:19:48; Version: 2.1.5]
[CTDB TOCID: AflsBptJohToqmqthduYCOs53B0-] found.
Track | CTDB Status
1 | (1/1) Accurately ripped
2 | (1/1) Accurately ripped
3 | (1/1) Accurately ripped
[AccurateRip ID: 0003d828-000d438f-2207bc03] found.
Track [ CRC | V2 ] Status
01 [a8508555|acfb8d2e] (0+4/4) Accurately ripped
02 [8675fc5b|10805716] (0+4/4) Accurately ripped
03 [1ebb38d4|10e0a517] (0+4/4) Accurately ripped
Track Peak [ CRC32 ] [W/O NULL]
-- 71,5 [FE615722] [34B659CD]
01 55,4 [3ECC14F2] [98CD7CFE]
02 61,8 [9C21692E] [CC1FBE83]
03 71,5 [1A5DD534] [8184CFEE]
 
AllMusic Review by Sam Samuelson
One of the most important records ever made, John Coltrane's A Love Supreme was his pinnacle studio outing, that at once compiled all of the innovations from his past, spoke to the current of deep spirituality that liberated him from addictions to drugs and alcohol, and glimpsed at the future innovations of his final two and a half years. Recorded over two days in December 1964, Trane's classic quartet--Elvin Jones, McCoy Tyner, and Jimmy Garrison-- stepped into the studio and created one of the most the most thought-provoking, concise, and technically pleasing albums of their bountiful relationship. From the undulatory (and classic) bassline at the intro to the last breathy notes, Trane is at the peak of his logical and emotionally varied soloing, while the rest of the group is completely atttuned to his spiritual vibe. Composed of four parts, each has a thematic progression. "Acknowledgement" is the awakening to a spiritual life from the darkness of the world; it trails off with the saxophonist chanting the suite's title. "Resolution" is an amazingly beautiful, somewhat turbulent segment. It portrays the dedication required for discovery on the path toward spiritual understanding. "Pursuance" searches deeply for that experience, while "Psalm" portrays that discovery and the realization of enlightenment with humility. Although sometimes aggressive and dissonant, this isn't Coltrane at his most furious or adventurous. His recordings following this period--studio and live-- become progressively untethered and extremely spirited. A Love Supreme not only attempts but realizes the ambitious undertaking of Coltrane's concept; his emotional, searching, sometimes prayerful journey is made abundantly clear. Clocking in at 33 minutes; A Love Supreme conveys much without overstatement. It is almost impossible to imagine any jazz collection without it.
По всем вопросам пишите личное сообщение пользователю M0p94ok.
19:21
211
Нет комментариев. Ваш будет первым!