Вы используете незарегистрированную версию компонента "Вкладки"!

Поиск

(Avant-Garde Jazz / Free Jazz / Fusion) [CD] E L (Electric Leak) - Electric Leak - 2008, FLAC (tracks+.cue), lossless

Треклист:
E L (Electric Leak) / Electric Leak
Жанр: Avant-Garde Jazz / Free Jazz / Fusion
Носитель: CD
Страна-производитель диска (релиза): Italy
Год издания: 2008
Издатель (лейбл): Electric Leak
Номер по каталогу: EL 001
Страна исполнителя (группы): Italy
Аудиокодек: FLAC (*.flac)
Тип рипа: tracks+.cue
Битрейт аудио: lossless
Продолжительность: 65:25 min
Источник (релизер): Stephen Roberts
Наличие сканов в содержимом раздачи: да (не полный набор)
Треклист:
1. T'bilisi - The Bombing of the City (T). 6:16
2. T'bilisi - The Bombing of the City ('). 5:17
3. T'bilisi - The Bombing of the City (B). 3:23
4. T'bilisi - The Bombing of the City (I). 1:03
5. T'bilisi - The Bombing of the City (L). 1:02
6. T'bilisi - The Bombing of the City (I). 6:47
7. T'bilisi - The Bombing of the City (S). 1:23
8. T'bilisi - The Bombing of the City (I). 4:34
9. Chisinau - The Pogrom (CHIS). 2:48
10. Chisinau - The Pogrom (HIS). 3:20
11. Chisinau - The Pogrom (IS). 2:08
12. Chisinau - The Pogrom (SIN). 2:09
13. Chisinau - The Pogrom (INA). 4:44
14. Chisinau - The Pogrom (NAU). 5:13
15. Buccaneer - No Man's Land (BUC). 4:23
16. Buccaneer - No Man's Land (CAN). 1:45
17. Buccaneer - No Man's Land (EER). 9:09
 
Лог создания рипа
Exact Audio Copy V1.0 beta 3 from 29. August 2011
EAC extraction logfile from 8. December 2014, 14:26
E L / Electric Leak
Used drive : ATAPI iHAS124 E Adapter: 0 ID: 0
Read mode : Secure
Utilize accurate stream : Yes
Defeat audio cache : Yes
Make use of C2 pointers : No
Read offset correction : 6
Overread into Lead-In and Lead-Out : No
Fill up missing offset samples with silence : Yes
Delete leading and trailing silent blocks : No
Null samples used in CRC calculations : Yes
Used interface : Native Win32 interface for Win NT & 2000
Gap handling : Appended to previous track
Used output format : Internal WAV Routines
Sample format : 44.100 Hz; 16 Bit; Stereo
TOC of the extracted CD
Track | Start | Length | Start sector | End sector
---------------------------------------------------------
1 | 0:02.00 | 6:17.56 | 150 | 28480
2 | 6:19.56 | 5:19.07 | 28481 | 52412
3 | 11:38.63 | 3:25.21 | 52413 | 67808
4 | 15:04.09 | 1:05.09 | 67809 | 72692
5 | 16:09.18 | 1:04.18 | 72693 | 77510
6 | 17:13.36 | 6:48.62 | 77511 | 108172
7 | 24:02.23 | 1:25.03 | 108173 | 114550
8 | 25:27.26 | 4:36.25 | 114551 | 135275
9 | 30:03.51 | 2:50.33 | 135276 | 148058
10 | 32:54.09 | 3:22.09 | 148059 | 163217
11 | 36:16.18 | 2:10.00 | 163218 | 172967
12 | 38:26.18 | 2:10.55 | 172968 | 182772
13 | 40:36.73 | 4:46.20 | 182773 | 204242
14 | 45:23.18 | 5:15.22 | 204243 | 227889
15 | 50:38.40 | 4:24.57 | 227890 | 247746
16 | 55:03.22 | 1:46.55 | 247747 | 255751
17 | 56:50.02 | 9:09.29 | 255752 | 296955
Track 1
Filename C:\_EAC\01 T'bilisi - The Bombing of the City (T).wav
Pre-gap length 0:00:04.00
Peak level 99.0 %
Extraction speed 1.3 X
Track quality 100.0 %
Test CRC F0A40CD7
Copy CRC F0A40CD7
Track not present in AccurateRip database
Copy OK
Track 2
Filename C:\_EAC\02 T'bilisi - The Bombing of the City (').wav
Pre-gap length 0:00:02.00
Peak level 100.0 %
Extraction speed 1.4 X
Track quality 100.0 %
Test CRC 7AEBE33C
Copy CRC 7AEBE33C
Track not present in AccurateRip database
Copy OK
Track 3
Filename C:\_EAC\03 T'bilisi - The Bombing of the City (B).wav
Pre-gap length 0:00:02.00
Peak level 98.3 %
Extraction speed 1.4 X
Track quality 100.0 %
Test CRC E024516E
Copy CRC E024516E
Track not present in AccurateRip database
Copy OK
Track 4
Filename C:\_EAC\04 T'bilisi - The Bombing of the City (I).wav
Pre-gap length 0:00:02.00
Peak level 95.9 %
Extraction speed 1.1 X
Track quality 100.0 %
Test CRC C4237CAE
Copy CRC C4237CAE
Track not present in AccurateRip database
Copy OK
Track 5
Filename C:\_EAC\05 T'bilisi - The Bombing of the City (L).wav
Pre-gap length 0:00:02.00
Peak level 96.0 %
Extraction speed 1.1 X
Track quality 100.0 %
Test CRC AB91175E
Copy CRC AB91175E
Track not present in AccurateRip database
Copy OK
Track 6
Filename C:\_EAC\06 T'bilisi - The Bombing of the City (I).wav
Pre-gap length 0:00:02.00
Peak level 98.8 %
Extraction speed 1.7 X
Track quality 100.0 %
Test CRC 19E2A186
Copy CRC 19E2A186
Track not present in AccurateRip database
Copy OK
Track 7
Filename C:\_EAC\07 T'bilisi - The Bombing of the City (S).wav
Pre-gap length 0:00:02.00
Peak level 98.5 %
Extraction speed 1.3 X
Track quality 100.0 %
Test CRC 11A106E0
Copy CRC 11A106E0
Track not present in AccurateRip database
Copy OK
Track 8
Filename C:\_EAC\08 T'bilisi - The Bombing of the City (I).wav
Pre-gap length 0:00:02.00
Peak level 96.9 %
Extraction speed 1.8 X
Track quality 100.0 %
Test CRC A8686BA6
Copy CRC A8686BA6
Track not present in AccurateRip database
Copy OK
Track 9
Filename C:\_EAC\09 Chisinau - The Pogrom (CHIS).wav
Pre-gap length 0:00:02.00
Peak level 99.2 %
Extraction speed 1.7 X
Track quality 100.0 %
Test CRC BFA4B333
Copy CRC BFA4B333
Track not present in AccurateRip database
Copy OK
Track 10
Filename C:\_EAC\10 Chisinau - The Pogrom (HIS).wav
Pre-gap length 0:00:02.00
Peak level 96.5 %
Extraction speed 1.8 X
Track quality 100.0 %
Test CRC 7E680A9D
Copy CRC 7E680A9D
Track not present in AccurateRip database
Copy OK
Track 11
Filename C:\_EAC\11 Chisinau - The Pogrom (IS).wav
Pre-gap length 0:00:02.00
Peak level 96.5 %
Extraction speed 1.7 X
Track quality 100.0 %
Test CRC 1FFDFDC2
Copy CRC 1FFDFDC2
Track not present in AccurateRip database
Copy OK
Track 12
Filename C:\_EAC\12 Chisinau - The Pogrom (SIN).wav
Pre-gap length 0:00:02.00
Peak level 96.7 %
Extraction speed 1.7 X
Track quality 100.0 %
Test CRC E349E7AF
Copy CRC E349E7AF
Track not present in AccurateRip database
Copy OK
Track 13
Filename C:\_EAC\13 Chisinau - The Pogrom (INA).wav
Pre-gap length 0:00:02.00
Peak level 100.0 %
Extraction speed 2.1 X
Track quality 100.0 %
Test CRC A7D0D0AC
Copy CRC A7D0D0AC
Track not present in AccurateRip database
Copy OK
Track 14
Filename C:\_EAC\14 Chisinau - The Pogrom (NAU).wav
Pre-gap length 0:00:02.00
Peak level 100.0 %
Extraction speed 2.2 X
Track quality 100.0 %
Test CRC D528ED96
Copy CRC D528ED96
Track not present in AccurateRip database
Copy OK
Track 15
Filename C:\_EAC\15 Buccaneer - No Man's Land (BUC).wav
Pre-gap length 0:00:02.00
Peak level 97.5 %
Extraction speed 2.2 X
Track quality 100.0 %
Test CRC 80CB6F9C
Copy CRC 80CB6F9C
Track not present in AccurateRip database
Copy OK
Track 16
Filename C:\_EAC\16 Buccaneer - No Man's Land (CAN).wav
Pre-gap length 0:00:02.00
Peak level 96.0 %
Extraction speed 1.9 X
Track quality 100.0 %
Test CRC 39DA7543
Copy CRC 39DA7543
Track not present in AccurateRip database
Copy OK
Track 17
Filename C:\_EAC\17 Buccaneer - No Man's Land (EER).wav
Pre-gap length 0:00:02.00
Peak level 98.5 %
Extraction speed 2.5 X
Track quality 100.0 %
Test CRC DFF5521F
Copy CRC DFF5521F
Track not present in AccurateRip database
Copy OK
None of the tracks are present in the AccurateRip database
No errors occurred
End of status report
 
Содержание индексной карты (.CUE)
REM GENRE "Jazz Avant-Garde"
REM DATE 2008
REM DISCID DF0F7511
REM COMMENT "ExactAudioCopy v1.0b3"
PERFORMER "E L"
TITLE "Electric Leak"
FILE "01 T'bilisi - The Bombing of the City (T).wav" WAVE
TRACK 01 AUDIO
TITLE "T'bilisi - The Bombing of the City (T)"
PERFORMER "E L"
PREGAP 00:02:00
INDEX 01 00:00:00
TRACK 02 AUDIO
TITLE "T'bilisi - The Bombing of the City (')"
PERFORMER "E L"
INDEX 00 06:15:56
FILE "02 T'bilisi - The Bombing of the City (').wav" WAVE
INDEX 01 00:00:00
TRACK 03 AUDIO
TITLE "T'bilisi - The Bombing of the City (B)"
PERFORMER "E L"
INDEX 00 05:17:07
FILE "03 T'bilisi - The Bombing of the City (B).wav" WAVE
INDEX 01 00:00:00
TRACK 04 AUDIO
TITLE "T'bilisi - The Bombing of the City (I)"
PERFORMER "E L"
INDEX 00 03:23:21
FILE "04 T'bilisi - The Bombing of the City (I).wav" WAVE
INDEX 01 00:00:00
TRACK 05 AUDIO
TITLE "T'bilisi - The Bombing of the City (L)"
PERFORMER "E L"
INDEX 00 01:03:09
FILE "05 T'bilisi - The Bombing of the City (L).wav" WAVE
INDEX 01 00:00:00
TRACK 06 AUDIO
TITLE "T'bilisi - The Bombing of the City (I)"
PERFORMER "E L"
INDEX 00 01:02:18
FILE "06 T'bilisi - The Bombing of the City (I).wav" WAVE
INDEX 01 00:00:00
TRACK 07 AUDIO
TITLE "T'bilisi - The Bombing of the City (S)"
PERFORMER "E L"
INDEX 00 06:46:62
FILE "07 T'bilisi - The Bombing of the City (S).wav" WAVE
INDEX 01 00:00:00
TRACK 08 AUDIO
TITLE "T'bilisi - The Bombing of the City (I)"
PERFORMER "E L"
INDEX 00 01:23:03
FILE "08 T'bilisi - The Bombing of the City (I).wav" WAVE
INDEX 01 00:00:00
TRACK 09 AUDIO
TITLE "Chisinau - The Pogrom (CHIS)"
PERFORMER "E L"
INDEX 00 04:34:25
FILE "09 Chisinau - The Pogrom (CHIS).wav" WAVE
INDEX 01 00:00:00
TRACK 10 AUDIO
TITLE "Chisinau - The Pogrom (HIS)"
PERFORMER "E L"
INDEX 00 02:48:33
FILE "10 Chisinau - The Pogrom (HIS).wav" WAVE
INDEX 01 00:00:00
TRACK 11 AUDIO
TITLE "Chisinau - The Pogrom (IS)"
PERFORMER "E L"
INDEX 00 03:20:09
FILE "11 Chisinau - The Pogrom (IS).wav" WAVE
INDEX 01 00:00:00
TRACK 12 AUDIO
TITLE "Chisinau - The Pogrom (SIN)"
PERFORMER "E L"
INDEX 00 02:08:00
FILE "12 Chisinau - The Pogrom (SIN).wav" WAVE
INDEX 01 00:00:00
TRACK 13 AUDIO
TITLE "Chisinau - The Pogrom (INA)"
PERFORMER "E L"
INDEX 00 02:08:55
FILE "13 Chisinau - The Pogrom (INA).wav" WAVE
INDEX 01 00:00:00
TRACK 14 AUDIO
TITLE "Chisinau - The Pogrom (NAU)"
PERFORMER "E L"
INDEX 00 04:44:20
FILE "14 Chisinau - The Pogrom (NAU).wav" WAVE
INDEX 01 00:00:00
TRACK 15 AUDIO
TITLE "Buccaneer - No Man's Land (BUC)"
PERFORMER "E L"
INDEX 00 05:13:22
FILE "15 Buccaneer - No Man's Land (BUC).wav" WAVE
INDEX 01 00:00:00
TRACK 16 AUDIO
TITLE "Buccaneer - No Man's Land (CAN)"
PERFORMER "E L"
INDEX 00 04:22:57
FILE "16 Buccaneer - No Man's Land (CAN).wav" WAVE
INDEX 01 00:00:00
TRACK 17 AUDIO
TITLE "Buccaneer - No Man's Land (EER)"
PERFORMER "E L"
INDEX 00 01:44:55
FILE "17 Buccaneer - No Man's Land (EER).wav" WAVE
INDEX 01 00:00:00
 
Лог проверки качества
-----------------------
DON'T MODIFY THIS FILE
-----------------------
PERFORMER: auCDtect Task Manager, ver. 1.6.0 RC1 build 1.6.0.1
Copyright (c) 2008-2010 y-soft. All rights reserved
http://y-soft.org
ANALYZER: auCDtect: CD records authenticity detector, version 0.8.2
Copyright (c) 2004 Oleg Berngardt. All rights reserved.
Copyright (c) 2004 Alexander Djourik. All rights reserved.
FILE: 01 T'bilisi - The Bombing of the City (T).flac
Size: 36689547 Hash: 223E0E051D012D38BC16EF108EB05086 Accuracy: -m0
Conclusion: MPEG 95%
Signature: 7357678E31AA759173CB8B1457080F63CE99B4D5
FILE: 02 T'bilisi - The Bombing of the City (').flac
Size: 32164808 Hash: F9A53531EC908D70170A59E6EC60969A Accuracy: -m0
Conclusion: MPEG 95%
Signature: E6401D5F39FDB1A35BF4DEA3007EBAB6BF08B1CF
FILE: 03 T'bilisi - The Bombing of the City (B).flac
Size: 16659328 Hash: BA05D89C988BC047DADE20AB8EAFA06A Accuracy: -m0
Conclusion: CDDA 100%
Signature: 34951A10A571C4E26121C86BB315CDABCD9BB150
FILE: 04 T'bilisi - The Bombing of the City (I).flac
Size: 5655111 Hash: EE448D176F5F345A7BDEC357CFE7731C Accuracy: -m0
Conclusion: CDDA 100%
Signature: AA35344EEBF8FBBDA0DF84D1C90CAA6AB1F92A38
FILE: 05 T'bilisi - The Bombing of the City (L).flac
Size: 5283066 Hash: EDAC40A30E386888365FFCD6D34D138B Accuracy: -m0
Conclusion: CDDA 100%
Signature: 956200161350904AF3C54A25F768A4B29AECE3F8
FILE: 06 T'bilisi - The Bombing of the City (I).flac
Size: 45054317 Hash: 3CE837F9A10F8B8908FE5D706B3CFF2F Accuracy: -m0
Conclusion: MPEG 95%
Signature: EB9ACEB66D91FEC086321C92CA76525BA293867B
FILE: 07 T'bilisi - The Bombing of the City (S).flac
Size: 6512284 Hash: 9A61F69D865B3297E27928EF2D14715E Accuracy: -m0
Conclusion: CDDA 99%
Signature: EABF31B2CF78ADA7451A3CC67D0E6A504C7BE9D9
FILE: 08 T'bilisi - The Bombing of the City (I).flac
Size: 24371647 Hash: A34B003F30E3972BF007782ADD4A9AE7 Accuracy: -m0
Conclusion: MPEG 95%
Signature: 0A9CDFD2D151DF464DBB66A47D7BEE3FF61E66DE
FILE: 09 Chisinau - The Pogrom (CHIS).flac
Size: 19144012 Hash: 72C1C75391B79657835A0E7B64783D87 Accuracy: -m0
Conclusion: MPEG 95%
Signature: FF341774FDEFF557E252EA75A70AC9304A8D641C
FILE: 10 Chisinau - The Pogrom (HIS).flac
Size: 16289627 Hash: 4B3D753F6CDF5ED19A85F93736FB4DE3 Accuracy: -m0
Conclusion: CDDA 100%
Signature: A352D1200DDCAAFBA341DF77BBA388EFA499A280
FILE: 11 Chisinau - The Pogrom (IS).flac
Size: 11129864 Hash: 6FE9FAEF3F007622C10C18A839C5C11B Accuracy: -m0
Conclusion: CDDA 99%
Signature: 8804DA7FA47A1677A6F82D064A823CFC52A228A6
FILE: 12 Chisinau - The Pogrom (SIN).flac
Size: 10915318 Hash: 83311A07BB40BC747DD9D48D2185A838 Accuracy: -m0
Conclusion: MPEG 95%
Signature: 797981A61B879669C5882F2DB5078FE3D831D874
FILE: 13 Chisinau - The Pogrom (INA).flac
Size: 31296373 Hash: 1C7AF52741C58880BFD23A3677068F5E Accuracy: -m0
Conclusion: MPEG 95%
Signature: 2E6F8AF714EB94237071F0C660DF9BAD64482AC2
FILE: 14 Chisinau - The Pogrom (NAU).flac
Size: 34735599 Hash: F40D1D46E909488E74819FE3D0C67D41 Accuracy: -m0
Conclusion: MPEG 95%
Signature: 153FFB9AC47BF85B6B389FEF1D84BD15A76A0E55
FILE: 15 Buccaneer - No Man's Land (BUC).flac
Size: 29521735 Hash: 63390CFDB310922DD48056AB1564FC14 Accuracy: -m0
Conclusion: MPEG 95%
Signature: 5AA65FF843846DF01E5B298B6A3C180E4C831A18
FILE: 16 Buccaneer - No Man's Land (CAN).flac
Size: 7788387 Hash: F7419B93D348DFDFBF08E3D57399E916 Accuracy: -m0
Conclusion: MPEG 95%
Signature: 1429AFC3B5B9A35700489EC170F376C09B0AABBF
FILE: 17 Buccaneer - No Man's Land (EER).flac
Size: 58003856 Hash: 24921DA2D77D55D6CDBC38FA19508EBB Accuracy: -m0
Conclusion: MPEG 95%
Signature: 345B867F3A41543565C7131EFD500A9A4635A9E7
 
Об альбоме (сборнике)
All compositions by EL
Recorded in Piacenze on 03.01.08
Mixed and mastered by Serse Mai
Produced by EL, Santarcangelo dei Teatri, Ortosonico
"EL" e un quartetto strumentale nato a Bologna nel 2007. Sin dall'inizio l'interazione tra composizione e improvvisazione e stata la forza dialettica che ha caratterizzato il gruppo. L'idea portante che ha spinto alla nascita del quartetto e che ne ha allo stesso tempo segnato lo sviluppo e quella di un'intersezione fra il linguaggio jazz ed improvvisativo da una parte e quello della musica elettronica ed elettro-acustica dall'altra. La continua ed essenziale indagine sul radicale problema della comunicazione artistica ha portato i quattro musicisti a individuare come sfondo neutro, come campo di studi su cui operare questo incontro quel panorama acustico, ma anche sociale e relazionale che ha come sua immediata espressione musicale il Rock e la musica elettronica. "Questi linguaggi, nel loro essere forme di comunicazione musicale di massa, sia nelle loro accezioni piu comuni che in quelle piu estreme, ci servono da grimaldello per penetrare quegli aspetti esplosivi e antitetici di una realta altrimenti impermeabile." Cosi descrivono il loro lavoro Christian Ferlaino (soprano, alto and baritone saxophones), Alberto Fiori (Wurlitzer piano, synth, toy piano, electronics), Francesco Guerri (violoncello, objects) e Giovanni Falvo (drums, percussions).
www.elmusic.org
 
Состав
Christian Ferlaino: soprano, alto and baritone saxophone, fx
Alberto Fiori: wurlizer piano, synth, toy piano, electronics
Francesco Guerri: cello, objects, fx
Giovanni Falvo: drums, percussion
По всем вопросам пишите личное сообщение пользователю M0p94ok.
06:55
146
Нет комментариев. Ваш будет первым!