Поиск

(Avant-Garde Jazz, Free Jazz, Double Bass) [CD] Uffe Krokfors - The Incense of All Our Prayers - 2007, FLAC (tracks+.cue), lossless

(Avant-Garde Jazz, Free Jazz, Double Bass) [CD] Uffe Krokfors - The Incense of All Our Prayers - 2007, FLAC (tracks+.cue), lossless
Uffe Krokfors - The Incense of All Our Prayers
Жанр: Avant-Garde Jazz, Free Jazz, Double Bass
Носитель: CD
Страна-производитель диска (релиза): Finland
Год издания: 2007
Издатель (лейбл): Krokfors
Номер по каталогу: UK001
Страна исполнителя (группы): Finland
Аудиокодек: FLAC (*.flac)
Тип рипа: tracks+.cue
Битрейт аудио: lossless
Продолжительность: 32:24
Источник (релизер): what.cd (Negative_Creep)
Наличие сканов в содержимом раздачи: нет
Треклист:
01 When in Doubt (03:17)
02 Sång för Velu (04:42)
03 Korpens nattliga flykt (04:17)
04 Vindflöjel (04:00)
05 Lycka (01:54)
06 Breaking Free (02:21)
07 Spring Flower (03:48)
08 Rauha (02:31)
09 The Incense of All Our Prayers (05:34)
 
Лог создания рипа
Exact Audio Copy V1.0 beta 2 from 29. April 2011
EAC extraction logfile from 18. May 2012, 12:18
Uffe Krokfors / The Incense of All Our Prayers
Used drive : TSSTcorpCDDVDW SH-S223L Adapter: 1 ID: 1
Read mode : Secure
Utilize accurate stream : Yes
Defeat audio cache : Yes
Make use of C2 pointers : No
Read offset correction : 6
Overread into Lead-In and Lead-Out : No
Fill up missing offset samples with silence : Yes
Delete leading and trailing silent blocks : No
Null samples used in CRC calculations : Yes
Used interface : Native Win32 interface for Win NT & 2000
Gap handling : Appended to previous track
Used output format : User Defined Encoder
Selected bitrate : 896 kBit/s
Quality : High
Add ID3 tag : No
Command line compressor : C:\Program Files (x86)\Exact Audio Copy\Flac\flac.exe
Additional command line options : -8 -V -T "ARTIST=%artist%" -T "TITLE=%title%" -T "ALBUM=%albumtitle%" -T "DATE=%year%" -T "TRACKNUMBER=%tracknr%" -T "GENRE=%genre%" -T "PERFORMER=%albuminterpret%" -T "COMPOSER=%composer%" %haslyrics%--tag-from-file=LYRIC
TOC of the extracted CD
Track | Start | Length | Start sector | End sector
---------------------------------------------------------
1 | 0:00.00 | 3:18.00 | 0 | 14849
2 | 3:18.00 | 4:43.48 | 14850 | 36122
3 | 8:01.48 | 4:19.51 | 36123 | 55598
4 | 12:21.24 | 4:02.63 | 55599 | 73811
5 | 16:24.12 | 1:56.16 | 73812 | 82527
6 | 18:20.28 | 2:25.10 | 82528 | 93412
7 | 20:45.38 | 3:49.23 | 93413 | 110610
8 | 24:34.61 | 2:33.67 | 110611 | 122152
9 | 27:08.53 | 5:34.30 | 122153 | 147232
Track 1
Filename M:\Music\What 4\Uffe Krokfors - The Incense of All Our Prayers (2008) [FLAC]\01 - When in Doubt.wav
Pre-gap length 0:00:02.00
Peak level 97.7 %
Extraction speed 1.9 X
Track quality 100.0 %
Test CRC CD2833A1
Copy CRC CD2833A1
Track not present in AccurateRip database
Copy OK
Track 2
Filename M:\Music\What 4\Uffe Krokfors - The Incense of All Our Prayers (2008) [FLAC]\02 - Sång för Velu.wav
Pre-gap length 0:00:01.26
Peak level 80.5 %
Extraction speed 2.1 X
Track quality 100.0 %
Test CRC 376ACAFF
Copy CRC 376ACAFF
Track not present in AccurateRip database
Copy OK
Track 3
Filename M:\Music\What 4\Uffe Krokfors - The Incense of All Our Prayers (2008) [FLAC]\03 - Korpens Nattliga Flykt.wav
Pre-gap length 0:00:01.58
Peak level 92.3 %
Extraction speed 2.3 X
Track quality 100.0 %
Test CRC 12D88924
Copy CRC 12D88924
Track not present in AccurateRip database
Copy OK
Track 4
Filename M:\Music\What 4\Uffe Krokfors - The Incense of All Our Prayers (2008) [FLAC]\04 - Vindflöjel.wav
Pre-gap length 0:00:02.49
Peak level 74.2 %
Extraction speed 2.4 X
Track quality 100.0 %
Test CRC D87FB931
Copy CRC D87FB931
Track not present in AccurateRip database
Copy OK
Track 5
Filename M:\Music\What 4\Uffe Krokfors - The Incense of All Our Prayers (2008) [FLAC]\05 - Lycka.wav
Pre-gap length 0:00:01.98
Peak level 58.3 %
Extraction speed 1.8 X
Track quality 99.9 %
Test CRC 532916C6
Copy CRC 532916C6
Track not present in AccurateRip database
Copy OK
Track 6
Filename M:\Music\What 4\Uffe Krokfors - The Incense of All Our Prayers (2008) [FLAC]\06 - Breaking Free.wav
Pre-gap length 0:00:02.04
Peak level 81.0 %
Extraction speed 2.4 X
Track quality 100.0 %
Test CRC C8E8AF3E
Copy CRC C8E8AF3E
Track not present in AccurateRip database
Copy OK
Track 7
Filename M:\Music\What 4\Uffe Krokfors - The Incense of All Our Prayers (2008) [FLAC]\07 - Spring Flower.wav
Pre-gap length 0:00:03.77
Peak level 91.2 %
Extraction speed 2.7 X
Track quality 100.0 %
Test CRC 3D0FC828
Copy CRC 3D0FC828
Track not present in AccurateRip database
Copy OK
Track 8
Filename M:\Music\What 4\Uffe Krokfors - The Incense of All Our Prayers (2008) [FLAC]\08 - Rauha.wav
Pre-gap length 0:00:00.97
Peak level 91.9 %
Extraction speed 2.6 X
Track quality 100.0 %
Test CRC C352C9CB
Copy CRC C352C9CB
Track not present in AccurateRip database
Copy OK
Track 9
Filename M:\Music\What 4\Uffe Krokfors - The Incense of All Our Prayers (2008) [FLAC]\09 - The Incense of All Our Prayers.wav
Pre-gap length 0:00:02.14
Peak level 97.7 %
Extraction speed 3.0 X
Track quality 100.0 %
Test CRC 1EBA6BAA
Copy CRC 1EBA6BAA
Track not present in AccurateRip database
Copy OK
None of the tracks are present in the AccurateRip database
No errors occurred
End of status report
==== Log checksum 936C1E40D9300702873AD4068F9249771A163725B29DA8A22336BF64A632BB2F ====
 
Содержание индексной карты (.CUE)
REM GENRE "Free jazz"
REM DATE 2008
REM DISCID 6607AB09
REM COMMENT "ExactAudioCopy v1.0b2"
PERFORMER "Uffe Krokfors"
TITLE "The Incense of All Our Prayers"
FILE "01 - When in Doubt.wav" WAVE
TRACK 01 AUDIO
TITLE "When in Doubt"
PERFORMER "Uffe Krokfors"
FLAGS DCP
INDEX 01 00:00:00
TRACK 02 AUDIO
TITLE "Sång för Velu"
PERFORMER "Uffe Krokfors"
FLAGS DCP
INDEX 00 03:16:55
FILE "02 - Sång för Velu.wav" WAVE
INDEX 01 00:00:00
TRACK 03 AUDIO
TITLE "Korpens Nattliga Flykt"
PERFORMER "Uffe Krokfors"
FLAGS DCP
INDEX 00 04:42:04
FILE "03 - Korpens Nattliga Flykt.wav" WAVE
INDEX 01 00:00:00
TRACK 04 AUDIO
TITLE "Vindflöjel"
PERFORMER "Uffe Krokfors"
FLAGS DCP
INDEX 00 04:17:14
FILE "04 - Vindflöjel.wav" WAVE
INDEX 01 00:00:00
TRACK 05 AUDIO
TITLE "Lycka"
PERFORMER "Uffe Krokfors"
FLAGS DCP
INDEX 00 04:00:64
FILE "05 - Lycka.wav" WAVE
INDEX 01 00:00:00
TRACK 06 AUDIO
TITLE "Breaking Free"
PERFORMER "Uffe Krokfors"
FLAGS DCP
INDEX 00 01:54:13
FILE "06 - Breaking Free.wav" WAVE
INDEX 01 00:00:00
TRACK 07 AUDIO
TITLE "Spring Flower"
PERFORMER "Uffe Krokfors"
FLAGS DCP
INDEX 00 02:21:27
FILE "07 - Spring Flower.wav" WAVE
INDEX 01 00:00:00
TRACK 08 AUDIO
TITLE "Rauha"
PERFORMER "Uffe Krokfors"
FLAGS DCP
INDEX 00 03:48:25
FILE "08 - Rauha.wav" WAVE
INDEX 01 00:00:00
TRACK 09 AUDIO
TITLE "The Incense of All Our Prayers"
PERFORMER "Uffe Krokfors"
FLAGS DCP
INDEX 00 02:31:56
FILE "09 - The Incense of All Our Prayers.wav" WAVE
INDEX 01 00:00:00
 
Лог проверки качества
-----------------------
DON'T MODIFY THIS FILE
-----------------------
PERFORMER: auCDtect Task Manager, ver. 1.6.0 RC1 build 1.6.0.1
Copyright (c) 2008-2010 y-soft. All rights reserved
http://y-soft.org
ANALYZER: auCDtect: CD records authenticity detector, version 0.8.2
Copyright (c) 2004 Oleg Berngardt. All rights reserved.
Copyright (c) 2004 Alexander Djourik. All rights reserved.
FILE: 09 - The Incense of All Our Prayers.flac
Size: 26234077 Hash: E676497BC7E3F39E2312B47353154610 Accuracy: -m0
Conclusion: CDDA 100%
Signature: 01C3E88FAE207EB6AD7D898D1899B6FD3383143C
FILE: 08 - Rauha.flac
Size: 9192681 Hash: 826361B1C3BB29170FC0C706487E05A4 Accuracy: -m0
Conclusion: CDDA 100%
Signature: CDD6B8C79FB133FE68A520DF8A99864AA7D51503
FILE: 07 - Spring Flower.flac
Size: 12794259 Hash: E93EA5321B73183BF741AB118C315EF3 Accuracy: -m0
Conclusion: CDDA 100%
Signature: 9ADB288171461CAB4CC94BD12537691D8C2F6820
FILE: 06 - Breaking Free.flac
Size: 7888752 Hash: 5F950D8457CDC51D4B54875281BADA3B Accuracy: -m0
Conclusion: CDDA 100%
Signature: 39E727D4392475D10848AEFDFEEA57D15B9F80BD
FILE: 05 - Lycka.flac
Size: 5564487 Hash: D09FDEE9CB6B4081DF23B1C64CA144D9 Accuracy: -m0
Conclusion: CDDA 100%
Signature: 9E20CA960CC644315C7744ED1A8ADE8F3AB702BC
FILE: 04 - Vindflöjel.flac
Size: 17202733 Hash: 112DF28E40FCE15183102C4ACF0AB763 Accuracy: -m0
Conclusion: CDDA 99%
Signature: 5A707D3651D88486CB95C64AF418453CD78358F8
FILE: 03 - Korpens Nattliga Flykt.flac
Size: 14591169 Hash: 89315E1B91520414E22D923000B03D6C Accuracy: -m0
Conclusion: CDDA 100%
Signature: A07F693E25720D65C8CC2B2360F17BCF5BA97116
FILE: 02 - Sång för Velu.flac
Size: 18152343 Hash: BE1FBF5ABA8F7ECC610AEC9EFA5E80F4 Accuracy: -m0
Conclusion: CDDA 100%
Signature: DFC28CE10CB7447B4C9AF43C913650C74B76E5F8
FILE: 01 - When in Doubt.flac
Size: 11626352 Hash: BAE59CF92D68299810C146E068FEB149 Accuracy: -m0
Conclusion: CDDA 100%
Signature: 8D3B7D9B5C0FAC80E640121BC4F641E8AD27EAD3
 
Состав
Uffe Krokfors - double bass
23:26
346
Нет комментариев. Ваш будет первым!