Вы используете незарегистрированную версию компонента "Вкладки"!

Поиск

(Avant-Garde Jazz, Free Jazz) David S. Ware Quartet - Wisdom of Uncertainty {AUM Fidelity} - 1997, FLAC (tracks+.cue), lossless

Треклист:
David S. Ware Quartet
Wisdom of Uncertainty


Жанр: Avant-Garde Jazz, Free Jazz
Год выпуска диска: 1997
Производитель диска: USA (AUM Fidelity)
Аудио кодек: FLAC
Тип рипа: tracks+.cue
Битрейт аудио: lossless
Продолжительность: 62:36
David S. Ware - tenor sax
Matthew Shipp - piano
William Parker - bass
Susie Ibarra - drums
1. Acclimation - 12.45
2. Antidromic - 7.47
3. Utopic - 15.34
4. Alignment - 7.16
5. Sunbows Rainsets Blue - 7.41
6. Continuum - 11.34
All compositions by David S. Ware.
Produced by David S. Ware and Steven Joerg
Recorded and mixed by Jim Anderson
at Sound on Sound, NYC on December 2 and 3, 1996
Mastered by Allan Tucker at Foothill Digital, NYC
1997, AUM Fidelity
AUM001
 
EAC extraction logfile from 12. April 2009, 14:31
Exact Audio Copy V0.99 prebeta 4 from 23. January 2008
EAC extraction logfile from 12. April 2009, 14:31
David S. Ware Quartet / Wisdom of Uncertainty
Used drive : PLEXTOR DVDR PX-760A Adapter: 0 ID: 0
Read mode : Secure
Utilize accurate stream : Yes
Defeat audio cache : Yes
Make use of C2 pointers : No
Read offset correction : 30
Overread into Lead-In and Lead-Out : Yes
Fill up missing offset samples with silence : Yes
Delete leading and trailing silent blocks : No
Null samples used in CRC calculations : Yes
Used interface : Native Win32 interface for Win NT & 2000
Gap handling : Appended to previous track
Used output format : User Defined Encoder
Selected bitrate : 128 kBit/s
Quality : High
Add ID3 tag : No
Command line compressor : C:\Program Files\FLAC\flac.exe
Additional command line options : -8 -V -T "ARTIST=%a" -T "TITLE=%t" -T "ALBUM=%g" -T "DATE=%y" -T "TRACKNUMBER=%n" -T "GENRE=%m" -T "COMMENT=EAC FLAC -8" %s
TOC of the extracted CD
Track | Start | Length | Start sector | End sector
---------------------------------------------------------
1 | 0:00.00 | 12:44.50 | 0 | 57349
2 | 12:44.50 | 7:46.57 | 57350 | 92356
3 | 20:31.32 | 15:33.50 | 92357 | 162381
4 | 36:05.07 | 7:16.00 | 162382 | 195081
5 | 43:21.07 | 7:40.70 | 195082 | 229651
6 | 51:02.02 | 11:33.68 | 229652 | 281694
Track 1
Filename H:\David S. Ware Quartet - Wisdom of Uncertainty (1997) [FLAC]\01 - Acclimation.wav
Pre-gap length 0:00:02.00
Peak level 99.3 %
Track quality 100.0 %
Test CRC 6B68D6E2
Copy CRC 6B68D6E2
Track not present in AccurateRip database
Copy OK
Track 2
Filename H:\David S. Ware Quartet - Wisdom of Uncertainty (1997) [FLAC]\02 - Antidromic.wav
Peak level 98.7 %
Track quality 100.0 %
Test CRC 20641F41
Copy CRC 20641F41
Track not present in AccurateRip database
Copy OK
Track 3
Filename H:\David S. Ware Quartet - Wisdom of Uncertainty (1997) [FLAC]\03 - Utopic.wav
Peak level 98.3 %
Track quality 100.0 %
Test CRC 6519398D
Copy CRC 6519398D
Track not present in AccurateRip database
Copy OK
Track 4
Filename H:\David S. Ware Quartet - Wisdom of Uncertainty (1997) [FLAC]\04 - Alignment.wav
Peak level 97.0 %
Track quality 99.9 %
Test CRC 8AD16C98
Copy CRC 8AD16C98
Track not present in AccurateRip database
Copy OK
Track 5
Filename H:\David S. Ware Quartet - Wisdom of Uncertainty (1997) [FLAC]\05 - Sunbows Rainsets Blue.wav
Peak level 94.2 %
Track quality 100.0 %
Test CRC 08598DAF
Copy CRC 08598DAF
Track not present in AccurateRip database
Copy OK
Track 6
Filename H:\David S. Ware Quartet - Wisdom of Uncertainty (1997) [FLAC]\06 - Continuum.wav
Peak level 97.8 %
Track quality 100.0 %
Test CRC FDDA94B8
Copy CRC FDDA94B8
Track not present in AccurateRip database
Copy OK
None of the tracks are present in the AccurateRip database
No errors occurred
End of status report
Собственный рип с оригинального издания.
В комплекте полный набор сканов PNG/300dpi.
Any questions -> support@pro-jazz.com. По всем вопросам пишите -> support@pro-jazz.com
09:59
196
Нет комментариев. Ваш будет первым!