Вы используете незарегистрированную версию компонента "Вкладки"!

Поиск

(Avant-Garde Jazz, Free Jazz) David Murray - Ming's Samba - 1989, FLAC (tracks+.cue), lossless

(Avant-Garde Jazz, Free Jazz) David Murray - Ming's Samba - 1989, FLAC (tracks+.cue), lossless
Треклист:
David Murray - Ming's Samba
Жанр: Avant-Garde Jazz, Free Jazz
Страна-производитель диска: США
Год издания: 1989
Издатель (лейбл): Portrait/CBS
Номер по каталогу: RK 44432
Аудиокодек: FLAC (*.flac)
Тип рипа: tracks+.cue
Битрейт аудио: lossless
Продолжительность: 39:31
Источник (релизер): emule
Наличие сканов в содержимом раздачи: да
Треклист:
01. Ming's Samba (Murray) - 10:56
02. Rememberin' Fats (For Fats Waller) (Murray) - 8:46
03. Nowhere Everafter (Morris) - 2:53
04. Spooning (Morris) - 7:32
05. Walter's Waltz (For Walter P. Murray) (Murray) - 9:24
Состав:
David Murray - tenor saxophone, bass clarinet
John Hicks - piano
Ray Drummond - bass
Ed Blackwell - drums
Recorded on July 20, 1988.
 
Лог создания рипа
Exact Audio Copy V1.0 beta 2 from 29. April 2011
EAC extraction logfile from 5. September 2011, 21:30
David Murray / Ming's Samba
Used drive : PLEXTOR CD-R PREMIUM2 Adapter: 3 ID: 1
Read mode : Secure
Utilize accurate stream : Yes
Defeat audio cache : Yes
Make use of C2 pointers : No
Read offset correction : 30
Overread into Lead-In and Lead-Out : Yes
Fill up missing offset samples with silence : Yes
Delete leading and trailing silent blocks : No
Null samples used in CRC calculations : Yes
Used interface : Installed external ASPI interface
Gap handling : Appended to previous track
Used output format : User Defined Encoder
Selected bitrate : 1024 kBit/s
Quality : High
Add ID3 tag : No
Command line compressor : C:\Program Files\Exact Audio Copy\Flac\flac.exe
Additional command line options : -6 -V -T "ARTIST=%artist%" -T "TITLE=%title%" -T "ALBUM=%albumtitle%" -T "DATE=%year%" -T "PERFORMER=%albuminterpret%" -T "COMPOSER=%composer%" -T "TRACKNUMBER=%tracknr%" -T "TOTALTRACKS=%numtracks%" -T "GENRE=%genre%" -T "
TOC of the extracted CD
Track | Start | Length | Start sector | End sector
---------------------------------------------------------
1 | 0:00.00 | 10:56.40 | 0 | 49239
2 | 10:56.40 | 8:46.12 | 49240 | 88701
3 | 19:42.52 | 2:53.63 | 88702 | 101739
4 | 22:36.40 | 7:32.57 | 101740 | 135696
5 | 30:09.22 | 9:24.40 | 135697 | 178036
Track 1
Filename D:\Jazz\David Murray - Ming's Samba (1989) [FLAC] (CBS 746-44432-2)\01 - Ming's Samba.wav
Pre-gap length 0:00:02.00
Peak level 100.0 %
Extraction speed 4.2 X
Track quality 100.0 %
Test CRC 5736BDA2
Copy CRC 5736BDA2
Accurately ripped (confidence 9) [CAB420AB] (AR v1)
Copy OK
Track 2
Filename D:\Jazz\David Murray - Ming's Samba (1989) [FLAC] (CBS 746-44432-2)\02 - Rememberin' Fats.wav
Pre-gap length 0:00:02.00
Peak level 100.0 %
Extraction speed 5.8 X
Track quality 100.0 %
Test CRC 0A13710E
Copy CRC 0A13710E
Accurately ripped (confidence 9) [4F326609] (AR v1)
Copy OK
Track 3
Filename D:\Jazz\David Murray - Ming's Samba (1989) [FLAC] (CBS 746-44432-2)\03 - Nowhere Everafter.wav
Pre-gap length 0:00:01.62
Peak level 93.0 %
Extraction speed 4.5 X
Track quality 100.0 %
Test CRC 5065C5C8
Copy CRC 5065C5C8
Accurately ripped (confidence 9) [40F626C9] (AR v1)
Copy OK
Track 4
Filename D:\Jazz\David Murray - Ming's Samba (1989) [FLAC] (CBS 746-44432-2)\04 - Spooning.wav
Pre-gap length 0:00:02.03
Peak level 99.9 %
Extraction speed 5.7 X
Track quality 100.0 %
Test CRC 70408996
Copy CRC 70408996
Accurately ripped (confidence 9) [E3C8D0A9] (AR v1)
Copy OK
Track 5
Filename D:\Jazz\David Murray - Ming's Samba (1989) [FLAC] (CBS 746-44432-2)\05 - Walter's Waltz.wav
Pre-gap length 0:00:01.17
Peak level 93.1 %
Extraction speed 6.2 X
Track quality 100.0 %
Test CRC 54E6B2F8
Copy CRC 54E6B2F8
Accurately ripped (confidence 9) [0E05F406] (AR v1)
Copy OK
All tracks accurately ripped
No errors occurred
End of status report
==== Log checksum 5FD23ACA7D661D9DACA979F2596530DD9B1ECC6BDF96AA586B337FB72801F3B4 ====
 
Содержание индексной карты (.CUE)
REM GENRE Jazz
REM DATE 1989
REM DISCID 3F094505
REM COMMENT "ExactAudioCopy v1.0b2"
PERFORMER "David Murray"
TITLE "Ming's Samba"
FILE "01 - Ming's Samba.wav" WAVE
TRACK 01 AUDIO
TITLE "Ming's Samba"
PERFORMER "David Murray"
INDEX 01 00:00:00
TRACK 02 AUDIO
TITLE "Rememberin' Fats"
PERFORMER "David Murray"
INDEX 00 10:54:40
FILE "02 - Rememberin' Fats.wav" WAVE
INDEX 01 00:00:00
TRACK 03 AUDIO
TITLE "Nowhere Everafter"
PERFORMER "David Murray"
INDEX 00 08:44:25
FILE "03 - Nowhere Everafter.wav" WAVE
INDEX 01 00:00:00
TRACK 04 AUDIO
TITLE "Spooning"
PERFORMER "David Murray"
INDEX 00 02:51:60
FILE "04 - Spooning.wav" WAVE
INDEX 01 00:00:00
TRACK 05 AUDIO
TITLE "Walter's Waltz"
PERFORMER "David Murray"
INDEX 00 07:31:40
FILE "05 - Walter's Waltz.wav" WAVE
INDEX 01 00:00:00
 
Лог проверки качества
auCDtect: CD records authenticity detector, version 0.8.2
Copyright (c) 2004 Oleg Berngardt. All rights reserved.
Copyright (c) 2004 Alexander Djourik. All rights reserved.
------------------------------------------------------------
Processing file: [01 - Ming's Samba.wav]
Detected average hi-boundary frequency: 2.089331e+004 Hz
Detected average lo-boundary frequency: 1.614370e+004 Hz
Detected average hi-cut frequency: 2.176865e+004 Hz
Detected average lo-cut frequency: 1.763352e+004 Hz
Maximum probablis boundary frequency: 2.189100e+004 Hz
Coefficient of nonlinearity of a phase: 1.174402e-001
First order smothness: 4.877253e-001
Second order smothness: 6.443877e-001
------------------------------------------------------------
This track looks like CDDA with probability 99%
------------------------------------------------------------
Processing file: [02 - Rememberin' Fats.wav]
Detected average hi-boundary frequency: 2.098931e+004 Hz
Detected average lo-boundary frequency: 1.626796e+004 Hz
Detected average hi-cut frequency: 2.190140e+004 Hz
Detected average lo-cut frequency: 1.930367e+004 Hz
Maximum probablis boundary frequency: 2.189100e+004 Hz
Coefficient of nonlinearity of a phase: 1.025472e-001
First order smothness: 4.244630e-001
Second order smothness: 7.196876e-001
------------------------------------------------------------
This track looks like CDDA with probability 100%
------------------------------------------------------------
Processing file: [03 - Nowhere Everafter.wav]
Detected average hi-boundary frequency: 2.055072e+004 Hz
Detected average lo-boundary frequency: 1.471436e+004 Hz
Detected average hi-cut frequency: 2.185395e+004 Hz
Detected average lo-cut frequency: 1.552419e+004 Hz
Maximum probablis boundary frequency: 2.189100e+004 Hz
Coefficient of nonlinearity of a phase: 7.228135e-001
First order smothness: 4.107143e-001
Second order smothness: 6.856061e-001
------------------------------------------------------------
This track looks like CDDA with probability 100%
------------------------------------------------------------
Processing file: [04 - Spooning.wav]
Detected average hi-boundary frequency: 2.083378e+004 Hz
Detected average lo-boundary frequency: 1.677258e+004 Hz
Detected average hi-cut frequency: 2.169408e+004 Hz
Detected average lo-cut frequency: 1.597653e+004 Hz
Maximum probablis boundary frequency: 2.189100e+004 Hz
Coefficient of nonlinearity of a phase: 1.687832e-001
First order smothness: 4.305441e-001
Second order smothness: 6.316983e-001
------------------------------------------------------------
This track looks like CDDA with probability 100%
------------------------------------------------------------
Processing file: [05 - Walter's Waltz.wav]
Detected average hi-boundary frequency: 2.073826e+004 Hz
Detected average lo-boundary frequency: 1.543842e+004 Hz
Detected average hi-cut frequency: 2.183411e+004 Hz
Detected average lo-cut frequency: 1.827292e+004 Hz
Maximum probablis boundary frequency: 2.189100e+004 Hz
Coefficient of nonlinearity of a phase: 4.465413e-001
First order smothness: 4.156934e-001
Second order smothness: 7.354828e-001
------------------------------------------------------------
This track looks like CDDA with probability 100%
 
Отчет CUETools
[CUETools log; Date: 25.10.2012 2:17:18; Version: 2.1.4]
[CTDB TOCID: AaK8wx6sH8PKbl0AehRuoVyMZ.w-] found.
Track | CTDB Status
1 | (2/2) Accurately ripped
2 | (2/2) Accurately ripped
3 | (2/2) Accurately ripped
4 | (2/2) Accurately ripped
5 | (2/2) Accurately ripped
[AccurateRip ID: 000871c8-00266cee-3f094505] found.
Track [ CRC | V2 ] Status
01 [cab420ab|70d1b9a1] (9+0/9) Accurately ripped
02 [4f326609|48e76262] (9+0/9) Accurately ripped
03 [40f626c9|86ec12c2] (9+0/9) Accurately ripped
04 [e3c8d0a9|7c6903c4] (9+0/9) Accurately ripped
05 [0e05f406|95ecf066] (9+0/9) Accurately ripped
Track Peak [ CRC32 ] [W/O NULL] [ LOG ]
-- 100,0 [852BBF0D] [EE766DB4]
01 100,0 [5736BDA2] [3AC13775] CRC32
02 100,0 [0A13710E] [C66A89CC] CRC32
03 93,0 [5065C5C8] [76E2B132] CRC32
04 99,9 [70408996] [544A7430] CRC32
05 93,1 [54E6B2F8] [8AE71565] CRC32
 
Review by Scott Yanow
Although David Murray had already recorded a countless number of sessions as a leader by the late 1980's, Ming's Samba was his first on a large American label. Using an "in the tradition" rhythm section comprised of pianist John Hicks, bassist Ray Drummond and drummer Ed Blackwell, Murray tears through the calypso "Ming's Samba," pays tribute to the joy (if not the style) of Fats Waller ("Rememberin' Fats"), plays a warm breathy ballad solo a la John Klemmer ("Nowhere Everafter"), has fun on the humorous tango "Spooning" and shows off the expected Eric Dolphy influence (although Eric never slap-tongued) on bass clarinet during "Walter's Waltz." Hicks has several brilliant solos on the complex material, Drummond is superlative in his backing of Murray (check out "Walter's Waltz") and the colorful Blackwell proves to be a perfect foil for the leader. A recommended release although this set will probably be difficult to find.
Any questions -> support@pro-jazz.com. По всем вопросам пишите -> support@pro-jazz.com
04:35
260
Нет комментариев. Ваш будет первым!