Вы используете незарегистрированную версию компонента "Вкладки"!

Поиск

(Avant-Garde Jazz, Free Jazz) [CD] Ornette Coleman - Chappaqua Suite (2CD) - 1965 (1997 Japan Edition), FLAC (tracks+.cue), lossless

(Avant-Garde Jazz, Free Jazz) [CD] Ornette Coleman - Chappaqua Suite (2CD) - 1965 (1997 Japan Edition), FLAC (tracks+.cue), lossless
Треклист:
Ornette Coleman - Chappaqua Suite
Жанр: Avant-Garde Jazz, Free Jazz
Носитель: CD
Страна-производитель диска: Япония
Год издания: 1997
Издатель (лейбл): Sony Music
Номер по каталогу: SRCS 9192~3
Страна: США
Аудиокодек: FLAC (*.flac)
Тип рипа: tracks+.cue
Битрейт аудио: lossless
Продолжительность: 79:27
Источник (релизер): dotdash (what)
Наличие сканов в содержимом раздачи: нет
Состав:
Ornette Coleman - alto saxophone
David Izenzon - bass
Charles Moffett - drums
Pharoah Sanders - tenor saxophone
Orchestra arranged by Joseph Tekula.
Recorded in New York on June 15-17, 1965.
 
CD1 {40:01}
01. Part I (Coleman) - 21:16
02. Part II (Coleman) - 18:45
 
Лог создания рипа
X Lossless Decoder version 20140504 (147.0)
XLD extraction logfile from 2014-09-04 20:45:59 +0900
Ornette Coleman / Chappaqua Suite
Used drive : _NEC DVD_RW ND-3540A (revision 1.01)
Media type : Pressed CD
Ripper mode : XLD Secure Ripper
Disable audio cache : OK for the drive with a cache less than 1375KiB
Make use of C2 pointers : NO
Read offset correction : 48
Max retry count : 100
Gap status : Analyzed, Appended (except HTOA)
TOC of the extracted CD
Track | Start | Length | Start sector | End sector
---------------------------------------------------------
1 | 00:00:00 | 21:16:02 | 0 | 95701
2 | 21:16:02 | 18:44:60 | 95702 | 180061
AccurateRip Summary (DiscID: 00043534-000b29c7-14096002)
Track 01 : OK (v1+v2, confidence 5/5)
Track 02 : OK (v1+v2, confidence 5/5)
->All tracks accurately ripped.
All Tracks
Album gain : -5.37 dB
Peak : 1.000000
Statistics
Read error : 0
Jitter error (maybe fixed) : 0
Retry sector count : 0
Damaged sector count : 0
Track 01
Filename : /konwersja/Ornette Coleman - Chappaqua Suite (1965) [FLAC]/01 - Part I.flac
Pre-gap length : 00:02:00
Track gain : -5.21 dB
Peak : 1.000000
CRC32 hash (test run) : 90FC3C84
CRC32 hash : 90FC3C84
CRC32 hash (skip zero) : AD6F7F22
AccurateRip v1 signature : 521617A0
AccurateRip v2 signature : 1696FD23
->Accurately ripped (v1+v2, confidence 2+3/5)
Statistics
Read error : 0
Jitter error (maybe fixed) : 0
Retry sector count : 0
Damaged sector count : 0
Track 02
Filename : /konwersja/Ornette Coleman - Chappaqua Suite (1965) [FLAC]/02 - Part II.flac
Pre-gap length : 00:02:55
Track gain : -5.54 dB
Peak : 1.000000
CRC32 hash (test run) : FC1C3A72
CRC32 hash : FC1C3A72
CRC32 hash (skip zero) : 2B81A4B6
AccurateRip v1 signature : 29D37FB2
AccurateRip v2 signature : 681E2477
->Accurately ripped (v1+v2, confidence 2+3/5)
Statistics
Read error : 0
Jitter error (maybe fixed) : 0
Retry sector count : 0
Damaged sector count : 0
No errors occurred
End of status report
-----BEGIN XLD SIGNATURE-----
6H1eeuEjj6y.yAVZ9k1yaUHhlodVaYiFlGvSUY9ezUlzMwdX1vI79oOc2ZD2nDRDUVhqHcCxwQncaUoz4imFTMLEPpEtFLy6oKOmvne
-----END XLD SIGNATURE-----
 
Содержание индексной карты (.CUE)
TITLE "Chappaqua Suite CD1"
PERFORMER "Ornette Coleman"
REM GENRE "Jazz"
REM DATE "1965"
REM DISCID 14096002
REM REPLAYGAIN_ALBUM_GAIN -5.37 dB
REM REPLAYGAIN_ALBUM_PEAK 1.000000
FILE "01 - Part I.flac" WAVE
TRACK 01 AUDIO
TITLE "Part I"
SONGWRITER "Ornette Coleman"
REM REPLAYGAIN_TRACK_GAIN -5.21 dB
REM REPLAYGAIN_TRACK_PEAK 1.000000
INDEX 01 00:00:00
TRACK 02 AUDIO
TITLE "Part II"
SONGWRITER "Ornette Coleman"
REM REPLAYGAIN_TRACK_GAIN -5.54 dB
REM REPLAYGAIN_TRACK_PEAK 1.000000
INDEX 00 21:13:22
FILE "02 - Part II.flac" WAVE
INDEX 01 00:00:00
 
Отчет CUETools
[CUETools log; Date: 04.09.2014 22:10:45; Version: 2.1.5]
[CTDB TOCID: mmMKdP2DbydqZHkoLG59kliZWgc-] found.
Track | CTDB Status
1 | (3/3) Accurately ripped
2 | (3/3) Accurately ripped
[AccurateRip ID: 00043534-000b29c7-14096002] found.
Track [ CRC | V2 ] Status
01 [521617a0|1696fd23] (2+3/5) Accurately ripped
02 [29d37fb2|681e2477] (2+3/5) Accurately ripped
Track Peak [ CRC32 ] [W/O NULL]
-- 100,0 [4F0E4248] [9ABA01C0]
01 100,0 [90FC3C84] [AD6F7F22]
02 100,0 [FC1C3A72] [2B81A4B6]
 
CD2 {39:26}
01. Part III (Coleman) - 17:39
02. Part IV (Coleman) - 21:47
 
Лог создания рипа
X Lossless Decoder version 20140504 (147.0)
XLD extraction logfile from 2014-09-04 21:13:43 +0900
Ornette Coleman / Chappaqua Suite
Used drive : _NEC DVD_RW ND-3540A (revision 1.01)
Media type : Pressed CD
Ripper mode : XLD Secure Ripper
Disable audio cache : OK for the drive with a cache less than 1375KiB
Make use of C2 pointers : NO
Read offset correction : 48
Max retry count : 100
Gap status : Analyzed, Appended (except HTOA)
TOC of the extracted CD
Track | Start | Length | Start sector | End sector
---------------------------------------------------------
1 | 00:00:00 | 17:39:22 | 0 | 79446
2 | 17:39:22 | 21:46:73 | 79447 | 177469
AccurateRip Summary (DiscID: 0003eb95-000a8c69-0a093e02)
Track 01 : OK (v1+v2, confidence 5/5)
Track 02 : OK (v1+v2, confidence 5/5)
->All tracks accurately ripped.
All Tracks
Album gain : -2.63 dB
Peak : 1.000000
Statistics
Read error : 0
Jitter error (maybe fixed) : 0
Retry sector count : 0
Damaged sector count : 0
Track 01
Filename : /konwersja/Ornette Coleman - Chappaqua Suite (1965) [FLAC]/01 - Part III.flac
Pre-gap length : 00:02:00
Track gain : -2.14 dB
Peak : 1.000000
CRC32 hash (test run) : 43C6238D
CRC32 hash : 43C6238D
CRC32 hash (skip zero) : F5824F91
AccurateRip v1 signature : 1C88BB77
AccurateRip v2 signature : EC232E52
->Accurately ripped (v1+v2, confidence 2+3/5)
Statistics
Read error : 0
Jitter error (maybe fixed) : 0
Retry sector count : 0
Damaged sector count : 0
Track 02
Filename : /konwersja/Ornette Coleman - Chappaqua Suite (1965) [FLAC]/02 - Part IV.flac
Pre-gap length : 00:02:15
Track gain : -2.93 dB
Peak : 1.000000
CRC32 hash (test run) : 502CA43D
CRC32 hash : 502CA43D
CRC32 hash (skip zero) : 1D9DE1FC
AccurateRip v1 signature : C186866D
AccurateRip v2 signature : 857ADEE1
->Accurately ripped (v1+v2, confidence 2+3/5)
Statistics
Read error : 0
Jitter error (maybe fixed) : 0
Retry sector count : 0
Damaged sector count : 0
No errors occurred
End of status report
-----BEGIN XLD SIGNATURE-----
wRzUJ5MzyQl.lFyX8OCXsDR5Kzxal_VSMXzOIwow95BIftdQa9M45Qq4S910s58ifbBRfASYzW8O5Lrf64EAt_3f72VkBwZZOO09SJC
-----END XLD SIGNATURE-----
 
Содержание индексной карты (.CUE)
TITLE "Chappaqua Suite CD2"
PERFORMER "Ornette Coleman"
REM GENRE "Jazz"
REM DATE "1965"
REM DISCID 0A093E02
REM REPLAYGAIN_ALBUM_GAIN -2.63 dB
REM REPLAYGAIN_ALBUM_PEAK 1.000000
FILE "01 - Part III.flac" WAVE
TRACK 01 AUDIO
TITLE "Part III"
SONGWRITER "Ornette Coleman"
REM REPLAYGAIN_TRACK_GAIN -2.14 dB
REM REPLAYGAIN_TRACK_PEAK 1.000000
INDEX 01 00:00:00
TRACK 02 AUDIO
TITLE "Part IV"
SONGWRITER "Ornette Coleman"
REM REPLAYGAIN_TRACK_GAIN -2.93 dB
REM REPLAYGAIN_TRACK_PEAK 1.000000
INDEX 00 17:37:07
FILE "02 - Part IV.flac" WAVE
INDEX 01 00:00:00
 
Отчет CUETools
[CUETools log; Date: 04.09.2014 22:10:57; Version: 2.1.5]
[CTDB TOCID: 46QRcT4NyoQb4MZtczJA0Kydts8-] found.
Track | CTDB Status
1 | (3/3) Accurately ripped
2 | (3/3) Accurately ripped
[AccurateRip ID: 0003eb95-000a8c69-0a093e02] found.
Track [ CRC | V2 ] Status
01 [1c88bb77|ec232e52] (2+3/5) Accurately ripped
02 [c186866d|857adee1] (2+3/5) Accurately ripped
Track Peak [ CRC32 ] [W/O NULL]
-- 100,0 [7F3D88F3] [CB531763]
01 100,0 [43C6238D] [F5824F91]
02 100,0 [502CA43D] [1D9DE1FC]
 
Review by Thom Jurek
This four-part suite is actually a film soundtrack to the debut feature by Conrad Rooks, though it was never used as such. Recorded in 1965, it was performed by the Ornette Coleman Trio with Charles Moffett on drums and David Izenson on bass; augmenting the session were Pharoah Sanders on tenor and a large studio orchestra arranged by Joseph Tekula. What is most notable is the kind of control Coleman has over the orchestra. His trio is playing by intuition, which was normal for them, but they open to accommodate the more formal constructs of a band who knows little about improvisation and how it works in the free jazz context. Sanders' interaction with Coleman is startling too, in that his normally overpowering voice is tempered here, playing along with the nuances and odd harmonic figures Coleman suggests and then blatantly states from his alto. The improvisation is complementary, not a cutting contest at all. Most of all, the rhythm section carries the balance of power and keeps the entire thing moving, handling the dynamic changes with a feral grace while at the same time suggesting a knottier path for Coleman to follow in the tempting pastoral sections of the work. While not considered a masterwork of Coleman's, perhaps because of its unavailability in the United States in its entirety, Chappaqua Suite is a testament to Coleman's vision as a composer and the power of his orchestral direction. Very worthwhile indeed.
 
Об альбоме (сборнике)
Подобно концерту в Town Hall 1962 г., "Chappaqua Suite" соединяет импровизации джазового трио Коулмена с написанной музыкой для ансамбля классически подготовленных музыкантов. Поводом для записи стал заказ американского кинорежиссера Конрада Рука, которому нужна была музыка для фильма Chappaqua. В 1963 г. Коулмен, как считается, уже написал музыку к короткометражному фильму Стивена Шарпа "Improvisations", так что "Chappaqua Suite" стала его вторым (и не последним) опытом в этом жанре.
Однако, музыка, записанная в три июньских дня в Нью-Йорке, кажется, не оправдала ожиданий Рука. Примечания к альбому корректно сообщают, что музыка оказалась попросту слишком красивой, и потому фильму не подошла (!). Более вероятно, что режиссер предполагал нечто более приятное, и музыку к Chappaqua в результате написал Рави Шанкар. (Забавно, что имя Коулмена все-таки указано в титрах фильма, хотя его музыка там не звучит).
Имеются дополнительные проблемы и открытые вопросы относительно записи. Персонал и инструменты камерного ансамбля не вполне ясны, хотя можно выявить флейту, кларнет, гобой, трубу(ы) и струнные. Также неизвестно, какую роль сыграл Джозеф Текула (который уже появлялся на Jazz Abstractions в роли виолончелиста Contemporary String Quartet). Он, возможно, дирижировал ансамблем, но также указан на конверте альбома как "аранжировщик". Так что остаются сомнения, соответствуют ли восемьдесят минут пластинки оригинальному саундтреку Коулмена, и в какой степени он ответственен за музыку в ее существующей форме. Выпуск альбома французским подразделением CBS не был Коулменом санкционирован, и поскольку музыка на первой стороне затухает, в то время как третья и четвертая завершаются несколько преждевременно, очевидно, что с музыкальным материалом поработали звукоинженеры. Мартин Уильямс утверждает, что они удалили написанные секции (ансамбля), оставив по существу только соло Коулмена. Но это кажется маловероятным с точки зрения оставшихся 80 минут.
Можно быть, по крайней мере, уверенным, что существовало три (полных или порезанных) тейка, второй из которых охватывает 2 и 3 стороны ("Part 2" и "Part 3"). Характер музыки последовательно выдержан: трио Коулмена, Айзензона и Моффетта импровизирует без пауз; пассажи ансамбля вмешиваются, сохраняя характер фоновой музыки; ансамбль из двенадцати человек играет долгие, сложные аккорды, среднебыстрые ритмически однотипные пассажи, острые всплески в духе биг-бенда или быстрые, рваные текстуры — но всегда tutti (за исключением кратких, похожих на соло вмешательств скрипки, виолончели и гобоя ближе к концу "Part 4"). Между камерным ансамблем и трио нет никакого взаимодействия; два состава, кажется, катастрофически разделены — впечатление, усиленное их различными темпами. Большие куски, однако, отведены одному трио, которое развивает методы, найденные ранее на "The Ark" (1962 г.): Чарльз Моффетт (на различных ударных инструментах) выдает повторяющиеся импульсы, способные полностью изменить темп. Несмотря на спонтанность и открытость его игры, он последовательно привносит традиционные элементы: мощные акценты басового барабана — не что иное как "бомбы" бопового ударника, а маршевые ритмы напоминают барабанщиков парадов Юга. Конечно, этот союз традиции и авангарда подходит стилю саксофона Коулмена с его узнаваемыми корнями музыки штата Техас. Что касается Коулмена, то он находится на вершине технического мастерства и импровизационного потенциала. Дейвид Айзензон, с другой стороны, не столь хорош, как на "Town Hall" или позднее на записях из "Golden Circle" (частично, потому что он по-другому записан).
Со всеми несуразностями, "Chappaqua Suite" — значительное достижение, в силу существенного взаимодействия трио (особенно впечатляющего во втором тейке). Эта пластинка разочарует, однако, поклонников тенор-саксофониста Фарао Сандерса: он появляется лишь ненадолго к концу последней стороны и необычно вторичен.
По всем вопросам пишите личное сообщение пользователю M0p94ok.
04:20
168
Нет комментариев. Ваш будет первым!