Вы используете незарегистрированную версию компонента "Вкладки"!

Поиск

(Avant-Garde Jazz, Free Jazz) [CD] John Coltrane - First Meditations (for quartet) (1965) - 2015, FLAC (tracks+.cue), lossless

(Avant-Garde Jazz, Free Jazz) [CD] John Coltrane - First Meditations (for quartet) (1965) - 2015, FLAC (tracks+.cue), lossless
Треклист:
John Coltrane - First Meditations (for quartet) (1965) Жанр: Avant-Garde Jazz, Free Jazz
Носитель: CD
Страна-производитель диска (релиза): Japan
Год издания: 2015
Издатель (лейбл): Impulse!/Verve/Universal Music Japan
Номер по каталогу: UCCI-9246
Аудиокодек: FLAC (*.flac)
Тип рипа: tracks+.cue
Битрейт аудио: lossless
Продолжительность: 52:23
Rip by ruskaval
Наличие сканов в содержимом раздачи: да
Треклист:
01. Love (8:04)
02. Compassion (9:34)
03. Joy (8:49)
04. Consequences (7:20)
05. Serenity (6:15)
06. Joy (second version) (bonus track) (12:22)
Personnel:
John Coltrane - ts
McCoy Tyner - p
Jimmy Garrison - b
Elvin Jones - d
 
 
Лог создания рипа
Exact Audio Copy V1.1 from 23. June 2015
EAC extraction logfile from 25. August 2015, 1:16
John Coltrane / First Meditations (for quartet)
Used drive : TSSTcorpCDDVDW SE-208DB Adapter: 7 ID: 1
Read mode : Secure
Utilize accurate stream : Yes
Defeat audio cache : Yes
Make use of C2 pointers : No
Read offset correction : 6
Overread into Lead-In and Lead-Out : No
Fill up missing offset samples with silence : Yes
Delete leading and trailing silent blocks : No
Null samples used in CRC calculations : Yes
Used interface : Installed external ASPI interface
Gap handling : Appended to previous track
Used output format : User Defined Encoder
Selected bitrate : 1024 kBit/s
Quality : High
Add ID3 tag : No
Command line compressor : C:\Program Files (x86)\FLAC Frontend\tools\flac.exe
Additional command line options : -8 -V -T "ARTIST=%artist%" -T "TITLE=%title%" -T "ALBUM=%albumtitle%" -T "DATE=%year%" -T "TRACKNUMBER=%tracknr%" -T "TOTALTRACKS=%numtracks%" -T "GENRE=%genre%" -T "ALBUMARTIST=%albumartist%" -T "ALBUM ARTIST=%albumartist%" -T "COMMENT=EAC Secure Mode, Test & Copy, AccurateRip, FLAC -8" %source%
TOC of the extracted CD
Track | Start | Length | Start sector | End sector
---------------------------------------------------------
1 | 0:00.00 | 8:03.55 | 0 | 36279
2 | 8:03.55 | 9:34.25 | 36280 | 79354
3 | 17:38.05 | 8:48.62 | 79355 | 119016
4 | 26:26.67 | 7:20.25 | 119017 | 152041
5 | 33:47.17 | 6:14.48 | 152042 | 180139
6 | 40:01.65 | 12:21.44 | 180140 | 235758
Track 1
Filename M:\_EAC\John Coltrane - First Meditations (for quartet) (1965) [FLAC] {2015 Japan Impulse! Classics 50 Series}\01 - Love.wav
Pre-gap length 0:00:02.00
Peak level 98.8 %
Extraction speed 2.6 X
Track quality 99.9 %
Test CRC A248BB6C
Copy CRC A248BB6C
Accurately ripped (confidence 2) [F1076C3C] (AR v2)
Copy OK
Track 2
Filename M:\_EAC\John Coltrane - First Meditations (for quartet) (1965) [FLAC] {2015 Japan Impulse! Classics 50 Series}\02 - Compassion.wav
Peak level 98.8 %
Extraction speed 3.3 X
Track quality 99.9 %
Test CRC 925A5B6B
Copy CRC 925A5B6B
Cannot be verified as accurate (confidence 45) [826878BF], AccurateRip returned [4A8E642B] (AR v2)
Copy OK
Track 3
Filename M:\_EAC\John Coltrane - First Meditations (for quartet) (1965) [FLAC] {2015 Japan Impulse! Classics 50 Series}\03 - Joy.wav
Peak level 98.8 %
Extraction speed 4.1 X
Track quality 100.0 %
Test CRC F6C52476
Copy CRC F6C52476
Cannot be verified as accurate (confidence 46) [309614EF], AccurateRip returned [7163B5CF] (AR v2)
Copy OK
Track 4
Filename M:\_EAC\John Coltrane - First Meditations (for quartet) (1965) [FLAC] {2015 Japan Impulse! Classics 50 Series}\04 - Consequences.wav
Peak level 98.8 %
Extraction speed 4.4 X
Track quality 100.0 %
Test CRC 0D9DFEC2
Copy CRC 0D9DFEC2
Accurately ripped (confidence 2) [32C3BA11] (AR v2)
Copy OK
Track 5
Filename M:\_EAC\John Coltrane - First Meditations (for quartet) (1965) [FLAC] {2015 Japan Impulse! Classics 50 Series}\05 - Serenity.wav
Peak level 98.8 %
Extraction speed 4.7 X
Track quality 100.0 %
Test CRC 07F98CB2
Copy CRC 07F98CB2
Cannot be verified as accurate (confidence 45) [1E3BEBF0], AccurateRip returned [0CF6D99F] (AR v2)
Copy OK
Track 6
Filename M:\_EAC\John Coltrane - First Meditations (for quartet) (1965) [FLAC] {2015 Japan Impulse! Classics 50 Series}\06 - Joy (second version) (bonus track).wav
Peak level 93.0 %
Extraction speed 5.3 X
Track quality 100.0 %
Test CRC D610EB3A
Copy CRC D610EB3A
Accurately ripped (confidence 2) [60289E9B] (AR v2)
Copy OK
3 track(s) accurately ripped
3 track(s) could not be verified as accurate
Some tracks could not be verified as accurate
No errors occurred
End of status report
==== Log checksum 0070E6B5CE5C1CE22941A19BA46A68F0D7775961171A94E9D5B1052C26E85C80 ====
 
Содержание индексной карты (.CUE)
REM GENRE Jazz
REM DATE 1965
REM DISCID 460C4706
REM COMMENT "ExactAudioCopy v1.1"
PERFORMER "John Coltrane"
TITLE "First Meditations (for quartet)"
FILE "01 - Love.wav" WAVE
TRACK 01 AUDIO
TITLE "Love"
PERFORMER "John Coltrane"
INDEX 01 00:00:00
FILE "02 - Compassion.wav" WAVE
TRACK 02 AUDIO
TITLE "Compassion"
PERFORMER "John Coltrane"
INDEX 01 00:00:00
FILE "03 - Joy.wav" WAVE
TRACK 03 AUDIO
TITLE "Joy"
PERFORMER "John Coltrane"
INDEX 01 00:00:00
FILE "04 - Consequences.wav" WAVE
TRACK 04 AUDIO
TITLE "Consequences"
PERFORMER "John Coltrane"
INDEX 01 00:00:00
FILE "05 - Serenity.wav" WAVE
TRACK 05 AUDIO
TITLE "Serenity"
PERFORMER "John Coltrane"
INDEX 01 00:00:00
FILE "06 - Joy (second version) (bonus track).wav" WAVE
TRACK 06 AUDIO
TITLE "Joy (second version) (bonus track)"
PERFORMER "John Coltrane"
INDEX 01 00:00:00
По всем вопросам пишите личное сообщение пользователю M0p94ok.
15:15
246
Нет комментариев. Ваш будет первым!