Вы используете незарегистрированную версию компонента "Вкладки"!

Поиск

(Avant-Garde Jazz / Free Jazz) [CD] Dieter Scherf Trio (Paul Lovens, Jacek Bednarek) - Inside-Outside Reflections - 2005, rec. 1974, FLAC (tracks+.cue), lossless

(Avant-Garde Jazz / Free Jazz) [CD] Dieter Scherf Trio (Paul Lovens, Jacek Bednarek) - Inside-Outside Reflections - 2005, rec. 1974, FLAC (tracks+.cue), lossless
Треклист:
Dieter Scherf Trio - Inside-Outside Reflections
Жанр: Avant-Garde Jazz / Free Jazz
Носитель: CD
Страна-производитель диска: USA
Год издания: 2005
Год записи: 1974, originally released on LST Records (LST 29-11-74)
Издатель (лейбл): Atavistic
Номер по каталогу: ALP255CD / Unheard Music Series
Аудиокодек: FLAC (*.flac)
Тип рипа: tracks+.cue
Битрейт аудио: lossless
Продолжительность: 00:40:05
Источник (релизер): nnm, Джаз Клуб, 29 ноября, 2013 / спасибо mishka1981
Наличие сканов в содержимом раздачи: да
Треклист:
1. Innen-Außenspielgelungen (03:54)
2. Daijededa (07:16)
3. Atemzirkulation (03:02)
4. Drum Und Dran (06:27)
5. Prozess (13:25)
6. Klänge Über Linie (06:02)
Доп. информация:
Musicians:
DIETER SCHERF - alto saxophone, baritone saxophone, clarinets, piano
PAUL LOVENS - drums
JACEK BEDNAREK - bass
Recorded in 1974
DIETER SCHERF - Inside-Outside Reflections allmusic.com
DIETER SCHERF - Inside-Outside Reflections allaboutjazz.com
DIETER SCHERF from Wikipedia, the free encyclopedia
PAUL LOVENS from Wikipedia, the free encyclopedia
JACEK BEDNAREK from Wikipedia, the free encyclopedia
 
... photo ...
 
... review ...
Another historical release in Atavistic's Unheard Music Series, drawn from a seemingly bottomless well of lost or forgotten gems, Inside-Outside Reflections dates from 1974. As with similar releases, this is a welcome addition to the catalogue for both musical and historical reasons. It also saves collectors from taking out a small mortgage to acquire a copy; this one is as rare as hen's teeth on vinyl.
Dieter Scherf is a relatively unknown reeds player, but this should not deter listeners. He is an inventive, free-blowing player who is not short of ideas but does not flit around, either; on each piece here, he is disciplined and focused, establishing and sustaining a mood. At times he is reminiscent of Brötzmann's bull-in-a-china shop approach, but he lacks his countryman's relentless raw power. "Breathcirculation is a particularly appealing track, three minutes of sustained circular breathing that is relentless but avoids the common trap of some such playing, namely over-repetition leading to monotony.
For some, the presence of the 25 year-old Paul Lovens in the drum seat will be a prime attraction of this album. Already well-established and well-regarded by 1974 (Globe Unity Orchestra andPakistani Pomade, among others, had seen to that), Lovens gives an object lesson in free drumming, interacting with the other members and providing forward momentum without confining their creativity.
The third member of the trio, Polish bassist Jacek Bednarek, also deserves praise. The longest track here, "Processing, provides him with an opportunity to impress, an opportunity he readily seizes. He builds a complex and varied solo that forms the cornerstone of the piece and acts as a launching pad for some adrenalin-fuelled trio interactions, leading into some of the album's best playing.
Prior to this album, the trio toured extensively together, and the playing here demonstrates the kind of interaction that can only develop through regular gigging. The cover pictures firmly set the album in the mid-'70s, including a shot of the group's battered VW touring van. But the music has stood the test of time well-better that the players' hairstyles!
~ John Eyles ~ allaboutjazz.com
 
Лог создания рипа
Exact Audio Copy V1.0 beta 1 from 15. November 2010
EAC extraction logfile from 29. November 2013, 15:07
Dieter Scherf / Inside-Outside Reflections
Used drive : TSSTcorpCDDVDW TS-L633A Adapter: 3 ID: 0
Read mode : Secure
Utilize accurate stream : Yes
Defeat audio cache : Yes
Make use of C2 pointers : No
Read offset correction : 6
Overread into Lead-In and Lead-Out : No
Fill up missing offset samples with silence : Yes
Delete leading and trailing silent blocks : No
Null samples used in CRC calculations : Yes
Used interface : Installed external ASPI interface
Gap handling : Appended to previous track
Used output format : User Defined Encoder
Selected bitrate : 896 kBit/s
Quality : High
Add ID3 tag : No
Command line compressor : C:\Program Files\Exact Audio Copy\FLAC\FLAC.EXE
Additional command line options : -8 -V -T "ARTIST=%a" -T "TITLE=%t" -T "ALBUM=%g" -T "DATE=%y" -T "TRACKNUMBER=%n" -T "TOTALTRACKS=%x" -T "GENRE=%m" -T "ALBUMARTIST=%v" -T "ALBUM ARTIST=%v" -T "COMMENT=EAC Secure Mode, Test & Copy, AccurateRip, FLAC -8" %s
TOC of the extracted CD
Track | Start | Length | Start sector | End sector
---------------------------------------------------------
1 | 0:00.00 | 3:59.74 | 0 | 17998
2 | 3:59.74 | 7:19.02 | 17999 | 50925
3 | 11:19.01 | 3:04.16 | 50926 | 64741
4 | 14:23.17 | 6:09.44 | 64742 | 92460
5 | 20:32.61 | 13:33.36 | 92461 | 153471
6 | 34:06.22 | 5:59.45 | 153472 | 180441
Track 1
Filename C:\MY RIPS\01 - Innen-Aussenspielgelungen.wav
Pre-gap length 0:00:02.00
Peak level 100.0 %
Extraction speed 1.0 X
Track quality 100.0 %
Test CRC AA524252
Copy CRC AA524252
Track not present in AccurateRip database
Copy OK
Track 2
Filename C:\MY RIPS\02 - Daijededa.wav
Peak level 100.0 %
Extraction speed 1.3 X
Track quality 100.0 %
Test CRC 93F8951D
Copy CRC 93F8951D
Track not present in AccurateRip database
Copy OK
Track 3
Filename C:\MY RIPS\03 - Atemzirkulation.wav
Peak level 77.5 %
Extraction speed 1.3 X
Track quality 100.0 %
Test CRC FD766DB6
Copy CRC FD766DB6
Track not present in AccurateRip database
Copy OK
Track 4
Filename C:\MY RIPS\04 - Drum Und Dran.wav
Peak level 76.6 %
Extraction speed 1.3 X
Track quality 99.9 %
Test CRC 269F5B85
Copy CRC 269F5B85
Track not present in AccurateRip database
Copy OK
Track 5
Filename C:\MY RIPS\05 - Prozess.wav
Peak level 93.9 %
Extraction speed 1.8 X
Track quality 100.0 %
Test CRC 20ABCA3B
Copy CRC 20ABCA3B
Track not present in AccurateRip database
Copy OK
Track 6
Filename C:\MY RIPS\06 - Klange Uber Linie.wav
Peak level 87.2 %
Extraction speed 1.9 X
Track quality 100.0 %
Test CRC CE896E6E
Copy CRC CE896E6E
Track not present in AccurateRip database
Copy OK
None of the tracks are present in the AccurateRip database
No errors occurred
End of status report
==== Log checksum A64AEAAB533C9B01D29192AA48AA67F09C5316E1B42851CC338E9CF96E772114 ====
 
Содержание индексной карты (.CUE)
REM GENRE Avantgarde
REM DATE 1974
REM DISCID 43096506
REM COMMENT "ExactAudioCopy v1.0b1"
PERFORMER "Dieter Scherf"
TITLE "Inside-Outside Reflections"
FILE "01 - Innen-Aussenspielgelungen.wav" WAVE
TRACK 01 AUDIO
TITLE "Innen-Aussenspielgelungen"
PERFORMER "Dieter Scherf"
INDEX 01 00:00:00
FILE "02 - Daijededa.wav" WAVE
TRACK 02 AUDIO
TITLE "Daijededa"
PERFORMER "Dieter Scherf"
INDEX 01 00:00:00
FILE "03 - Atemzirkulation.wav" WAVE
TRACK 03 AUDIO
TITLE "Atemzirkulation"
PERFORMER "Dieter Scherf"
INDEX 01 00:00:00
FILE "04 - Drum Und Dran.wav" WAVE
TRACK 04 AUDIO
TITLE "Drum Und Dran"
PERFORMER "Dieter Scherf"
INDEX 01 00:00:00
FILE "05 - Prozess.wav" WAVE
TRACK 05 AUDIO
TITLE "Prozess"
PERFORMER "Dieter Scherf"
INDEX 01 00:00:00
FILE "06 - Klange Uber Linie.wav" WAVE
TRACK 06 AUDIO
TITLE "Klange Uber Linie"
PERFORMER "Dieter Scherf"
INDEX 01 00:00:00
 
auCDtect Task Manager
-----------------------
DON'T MODIFY THIS FILE
-----------------------
PERFORMER: auCDtect Task Manager, ver. 1.5.1RC6 build 1.5.1.7
Copyright (c) 2008-2010 y-soft. All rights reserved
http://y-soft.org
ANALYZER: auCDtect: CD records authenticity detector, version 0.8.2
Copyright (c) 2004 Oleg Berngardt. All rights reserved.
Copyright (c) 2004 Alexander Djourik. All rights reserved.
FILE: 06 - Klange Uber Linie.flac
Size: 30098979 Hash: 636E0AE65D3A9DB5447AE66F762EE21D Accuracy: -m0
Conclusion: CDDA 100%
Signature: 72198F9F85AEE226FE9E9EF9DD6ADF786615CED8
FILE: 05 - Prozess.flac
Size: 73768289 Hash: 663A61DF8E79C9B0FF316A9C2FB5587F Accuracy: -m0
Conclusion: CDDA 100%
Signature: EC03BD329D13A3ACFD3B7E14A2B4894D2A479BF1
FILE: 04 - Drum Und Dran.flac
Size: 34067077 Hash: 8125E56F1D8A37EF83B83B3E20732395 Accuracy: -m0
Conclusion: CDDA 100%
Signature: C8077B25FE36360EBD6441BA837673B1838DE5D5
FILE: 03 - Atemzirkulation.flac
Size: 16088887 Hash: 8CD69F2B6365712E5A7A3A554D66CF46 Accuracy: -m0
Conclusion: CDDA 100%
Signature: EB63AC59DAE3A62ADEA9449E559010813AF022E4
FILE: 02 - Daijededa.flac
Size: 45130074 Hash: EC3D1399923895440FE9CE0B52362B21 Accuracy: -m0
Conclusion: CDDA 100%
Signature: A41475695A3E0D081D334A9E24A45C8C79204EDF
FILE: 01 - Innen-Aussenspielgelungen.flac
Size: 19901986 Hash: D0D418C1E3AD5CCCEDB94060149C1199 Accuracy: -m0
Conclusion: CDDA 100%
Signature: 9A81158B84FC492A4F662D47FDB5C3F14364B0FE
... релизы с участием PAUL LOVENS на трекере ...
Any questions -> support@pro-jazz.com. По всем вопросам пишите -> support@pro-jazz.com
21:12
203
Нет комментариев. Ваш будет первым!