Вы используете незарегистрированную версию компонента "Вкладки"!

Поиск

(Avant-Garde Jazz, Free Jazz) [CD] Albert Ayler - Spirits Rejoice - 1965 (2006), FLAC (tracks+.cue), lossless

(Avant-Garde Jazz, Free Jazz) [CD] Albert Ayler - Spirits Rejoice - 1965 (2006), FLAC (tracks+.cue), lossless
Треклист:
Albert Ayler - Spirits Rejoice
Жанр: Avant-Garde Jazz, Free Jazz
Носитель: CD
Страна-производитель диска: Италия
Год издания диска: 2006
Издатель (лейбл): ESP-Disk/Abraxas
Номер по каталогу: ESP 1020
Аудиокодек: FLAC (*.flac)
Тип рипа: tracks+.cue
Битрейт аудио: lossless
Продолжительность: 32:56
Источник (релизер): alexanarchy (what)
Наличие сканов в содержимом раздачи: сетевые
Треклист:
01. Spirits Rejoice (Ayler) - 11:40
02. Holy Family (Ayler) - 2:13
03. D.C. (Ayler) - 8:00
04. Angels (Ayler) - 5:29
05. Prophet (Ayler) - 5:34
Состав:
Albert Ayler - tenor saxophone
Don Ayler - trumpet
Charles Tyler - alto saxophone
Sunny Murray - drums
Call Cobbs - harpsichord (#4)
Henry Grimes, Gary Peacock - bass
Recorded on September 23, 1965 at Judson Hall, New York.
 
Лог создания рипа
Exact Audio Copy V0.99 prebeta 5 from 4. May 2009
EAC extraction logfile from 27. August 2010, 8:43
Albert Ayler / Spirits Rejoice
Used drive : SlimtypeDVD A DS8A3S Adapter: 1 ID: 0
Read mode : Secure
Utilize accurate stream : Yes
Defeat audio cache : Yes
Make use of C2 pointers : No
Read offset correction : 6
Overread into Lead-In and Lead-Out : No
Fill up missing offset samples with silence : Yes
Delete leading and trailing silent blocks : No
Null samples used in CRC calculations : Yes
Used interface : Installed external ASPI interface
Gap handling : Appended to previous track
Used output format : User Defined Encoder
Selected bitrate : 320 kBit/s
Quality : High
Add ID3 tag : No
Command line compressor : C:\Program Files\Exact Audio Copy\Flac\flac.exe
Additional command line options : -V -8 -T "artist=%a" -T "title=%t" -T "album=%g" -T "date=%y" -T "tracknumber=%n" -T "genre=%m" %s
TOC of the extracted CD
Track | Start | Length | Start sector | End sector
---------------------------------------------------------
1 | 0:00.00 | 11:39.57 | 0 | 52481
2 | 11:39.57 | 2:12.43 | 52482 | 62424
3 | 13:52.25 | 7:59.72 | 62425 | 98421
4 | 21:52.22 | 5:28.40 | 98422 | 123061
5 | 27:20.62 | 5:34.28 | 123062 | 148139
Track 1
Filename C:\EAC Rips\01 - Spirits Rejoice (Live).wav
Pre-gap length 0:00:02.00
Peak level 85.3 %
Track quality 100.0 %
Test CRC 773C25F4
Copy CRC 773C25F4
Accurately ripped (confidence 6) [4869A239]
Copy OK
Track 2
Filename C:\EAC Rips\02 - Holy Family (Live).wav
Pre-gap length 0:00:02.25
Peak level 79.1 %
Track quality 100.0 %
Test CRC CB0E39CB
Copy CRC CB0E39CB
Accurately ripped (confidence 6) [FE180BF5]
Copy OK
Track 3
Filename C:\EAC Rips\03 - D.C. (Live).wav
Pre-gap length 0:00:04.25
Peak level 96.2 %
Track quality 100.0 %
Test CRC 3B053BDE
Copy CRC 3B053BDE
Accurately ripped (confidence 6) [689D11CB]
Copy OK
Track 4
Filename C:\EAC Rips\04 - Angels (Live).wav
Pre-gap length 0:00:01.10
Peak level 39.8 %
Track quality 100.0 %
Test CRC C8DD2306
Copy CRC C8DD2306
Accurately ripped (confidence 6) [BDB88352]
Copy OK
Track 5
Filename C:\EAC Rips\05 - Prophet (Live).wav
Pre-gap length 0:00:00.67
Peak level 98.1 %
Track quality 100.0 %
Test CRC B08E649A
Copy CRC B08E649A
Accurately ripped (confidence 6) [A4913DC9]
Copy OK
All tracks accurately ripped
No errors occurred
End of status report
 
Содержание индексной карты (.CUE)
REM GENRE Jazz
REM DATE 1965
REM DISCID 2F07B705
REM COMMENT "ExactAudioCopy v0.99pb5"
PERFORMER "Albert Ayler"
TITLE "Spirits Rejoice"
FILE "01 - Spirits Rejoice.wav" WAVE
TRACK 01 AUDIO
TITLE "Spirits Rejoice"
PERFORMER "Albert Ayler"
INDEX 01 00:00:00
TRACK 02 AUDIO
TITLE "Holy Family"
PERFORMER "Albert Ayler"
INDEX 00 11:37:32
FILE "02 - Holy Family.wav" WAVE
INDEX 01 00:00:00
TRACK 03 AUDIO
TITLE "D.C."
PERFORMER "Albert Ayler"
INDEX 00 02:08:18
FILE "03 - D.C..wav" WAVE
INDEX 01 00:00:00
TRACK 04 AUDIO
TITLE "Angels"
PERFORMER "Albert Ayler"
INDEX 00 07:58:62
FILE "04 - Angels.wav" WAVE
INDEX 01 00:00:00
TRACK 05 AUDIO
TITLE "Prophet"
PERFORMER "Albert Ayler"
INDEX 00 05:27:48
FILE "05 - Prophet.wav" WAVE
INDEX 01 00:00:00
 
Отчет CUETools
[CUETools log; Date: 26.01.2016 15:50:34; Version: 2.1.5]
[CTDB TOCID: jre4HklAPjRVTMu8AMFqdNRHVaU-] found.
Track | CTDB Status
1 | (12/13) Accurately ripped
2 | (13/13) Accurately ripped
3 | (13/13) Accurately ripped
4 | (13/13) Accurately ripped
5 | (12/13) Accurately ripped
[AccurateRip ID: 000764b3-00216afe-2f07b705] found.
Track [ CRC | V2 ] Status
01 [4869a239|c88b5164] (07+03/30) Accurately ripped
02 [fe180bf5|14bf75b0] (07+03/30) Accurately ripped
03 [689d11cb|b220a7bd] (07+03/30) Accurately ripped
04 [bdb88352|56d5708c] (07+03/30) Accurately ripped
05 [a4913dc9|a0e08832] (07+03/29) Accurately ripped
Offsetted by 12:
01 [1edfd35f] (02/30) Accurately ripped
02 [18c3c65a] (02/30) Accurately ripped
03 [80459051] (02/30) Accurately ripped
04 [6697c6ab] (02/30) Accurately ripped
05 [544687e1] (02/29) Accurately ripped
Offsetted by 681:
01 [e531c8af] (09/30) Accurately ripped
02 [17c97b25] (09/30) Accurately ripped
03 [f6d52045] (09/30) Accurately ripped
04 [eaa3e48e] (09/30) Accurately ripped
05 [1cb2659b] (08/29) Accurately ripped
Track Peak [ CRC32 ] [W/O NULL] [ LOG ]
-- 98,1 [31A21D0D] [5FE833D9]
01 85,3 [773C25F4] [35AE3152] CRC32
02 79,1 [CB0E39CB] [5C3A237A] CRC32
03 96,2 [3B053BDE] [970EBAD9] CRC32
04 39,8 [C8DD2306] [DA6595E6] CRC32
05 98,1 [B08E649A] [16D6FE05] CRC32
 
Review by Steve Huey
Recorded live at New York's Judson Hall in 1965, Spirits Rejoice is one of Albert Ayler's wildest, noisiest albums, partly because it's one of the very few that teams him with another saxophonist, altoist Charles Tyler. It's also one of the earliest recordings to feature Ayler's brother Don playing an amateurish but expressive trumpet, and the ensemble is further expanded by using bassists Henry Grimes and Gary Peacock together on three of the five tracks; plus, the rubato "Angels" finds Ayler interacting with Call Cobbs' harpsichord in an odd, twinkling evocation of the spiritual spheres. Aside from that more spacious reflection, most of the album is given over to furious ensemble interaction and hard-blowing solos that always place in-the-moment passion above standard jazz technique. Freed up by the presence of the trumpet and alto, Ayler's playing concentrates on the rich lower register of his horn and all the honks and growls that go with it; his already thick, huge tone has rarely seemed more monolithic. Spirits Rejoice also provides an opportunity to hear the sources of Ayler's simple, traditional melodies becoming more eclectic. The nearly 12-minute title track has a pronounced New Orleans marching band feel, switching between two themes reminiscent of a hymn and a hunting bugle call, and the brief "Holy Family" is downright R&B-flavored. "Prophet" touches on a different side of Ayler's old-time march influence, with machine-gun cracks and militaristic cadences from drummer Sunny Murray driving the raggedly energetic ensemble themes. For all its apparent chaos, Spirits Rejoice is often surprisingly pre-arranged -- witness all the careening harmony passages that accompany the theme statements, and the seamless transitions of the title track. Spirits Rejoice is proof that there was an underlying logic even to Ayler's most extreme moments, and that's why it remains a tremendously inspiring recording.
Any questions - support@pro-jazz.com.
Есть вопросы - support@pro-jazz.com
14:28
258
Нет комментариев. Ваш будет первым!