Вы используете незарегистрированную версию компонента "Вкладки"!

Поиск

(Avant-Garde Jazz, Free Jazz) Billy Bang Sextet - Live at Carlos 1 - 1987, FLAC (tracks+.cue) lossless

Треклист:
Billy Bang Sextet - Live at Carlos 1
Жанр: Avant-Garde Jazz, Free Jazz
Страна-производитель диска: Italy
Год издания диска: 1987
Издатель (лейбл): Soul Note
Номер по каталогу: SN 121 136-2
Страна: Italy
Аудио кодек: FLAC (*.flac)
Тип рипа: tracks+.cue
Битрейт аудио: lossless
Продолжительность: 46:34
Источник (релизер): собственный рип с оригинального диска
Наличие сканов в содержимом раздачи: да
Треклист:
01. Thank You Ma'am (adapted from a short story by Langston Hughes) (Bang) 8:33
02. Sinawe Mandelas (dedicated to the late Johnny Dyani) (Bang) 6:57
03. Sad Song (Bang) 4:37
04. Abuella (dedicated to M. Ramirez) (Bang) 13:40
05. Rainbow Gladiator (Bang) 5:48
06. Going Through (Bang) 6:45
 
Лог создания рипа
Exact Audio Copy V0.99 prebeta 5 from 4. May 2009
EAC extraction logfile from 25. November 2010, 23:42
Billy Bang Sextet / Live at Carlos 1
Used drive : TSSTcorpCDDVDW SH-S222A Adapter: 1 ID: 0
Read mode : Secure
Utilize accurate stream : Yes
Defeat audio cache : Yes
Make use of C2 pointers : No
Read offset correction : 6
Overread into Lead-In and Lead-Out : No
Fill up missing offset samples with silence : Yes
Delete leading and trailing silent blocks : No
Null samples used in CRC calculations : Yes
Used interface : Native Win32 interface for Win NT & 2000
Gap handling : Appended to previous track
Used output format : User Defined Encoder
Selected bitrate : 768 kBit/s
Quality : High
Add ID3 tag : No
Command line compressor : C:\tool\Audio\Exact Audio Copy\FLAC\FLAC.EXE
Additional command line options : -V -8 -T "ARTIST=%a" -T "TITLE=%t" -T "ALBUM=%g" -T "TRACKNUMBER=%n" -T "GENRE=%m" %s
TOC of the extracted CD
Track | Start | Length | Start sector | End sector
---------------------------------------------------------
1 | 0:00.33 | 8:36.00 | 33 | 38732
2 | 8:36.33 | 7:00.00 | 38733 | 70232
3 | 15:36.33 | 4:40.00 | 70233 | 91232
4 | 20:16.33 | 13:43.00 | 91233 | 152957
5 | 33:59.33 | 5:51.00 | 152958 | 179282
6 | 39:50.33 | 6:45.00 | 179283 | 209657
Track 1
Filename C:\! RUTRACKER\ru up\Billy Bang - Live at Carlos 1\01 - Thank You Ma'am.wav
Pre-gap length 0:00:02.33
Peak level 97.7 %
Track quality 99.9 %
Test CRC 51515AFD
Copy CRC 51515AFD
Track not present in AccurateRip database
Copy OK
Track 2
Filename C:\! RUTRACKER\ru up\Billy Bang - Live at Carlos 1\02 - Sinawe Mandelas.wav
Pre-gap length 0:00:03.00
Peak level 95.5 %
Track quality 99.9 %
Test CRC 48B57B9E
Copy CRC 48B57B9E
Track not present in AccurateRip database
Copy OK
Track 3
Filename C:\! RUTRACKER\ru up\Billy Bang - Live at Carlos 1\03 - Sad Song.wav
Pre-gap length 0:00:03.00
Peak level 91.2 %
Track quality 100.0 %
Test CRC BDAE4877
Copy CRC BDAE4877
Track not present in AccurateRip database
Copy OK
Track 4
Filename C:\! RUTRACKER\ru up\Billy Bang - Live at Carlos 1\04 - Abuella.wav
Pre-gap length 0:00:03.00
Peak level 95.5 %
Track quality 99.9 %
Test CRC 2F2F0C63
Copy CRC 2F2F0C63
Track not present in AccurateRip database
Copy OK
Track 5
Filename C:\! RUTRACKER\ru up\Billy Bang - Live at Carlos 1\05 - Rainbow Gladiator.wav
Pre-gap length 0:00:03.00
Peak level 77.4 %
Track quality 99.9 %
Test CRC 89426EA5
Copy CRC 89426EA5
Track not present in AccurateRip database
Copy OK
Track 6
Filename C:\! RUTRACKER\ru up\Billy Bang - Live at Carlos 1\06 - Going Through.wav
Pre-gap length 0:00:03.00
Peak level 97.0 %
Track quality 99.9 %
Test CRC 87C43C58
Copy CRC 87C43C58
Track not present in AccurateRip database
Copy OK
None of the tracks are present in the AccurateRip database
No errors occurred
End of status report
 
Содержание индексной карты (.CUE)
REM GENRE Jazz
REM DATE 1987
REM DISCID 470AEB06
REM COMMENT "ExactAudioCopy v0.99pb5"
CATALOG 0000000000000
PERFORMER "Billy Bang Sextet"
TITLE "Live at Carlos 1"
FILE "01 - Thank You Ma'am.wav" WAVE
TRACK 01 AUDIO
TITLE "Thank You Ma'am"
PERFORMER "Billy Bang Sextet"
PREGAP 00:00:33
INDEX 01 00:00:00
TRACK 02 AUDIO
TITLE "Sinawe Mandelas"
PERFORMER "Billy Bang Sextet"
INDEX 00 08:33:00
FILE "02 - Sinawe Mandelas.wav" WAVE
INDEX 01 00:00:00
TRACK 03 AUDIO
TITLE "Sad Song"
PERFORMER "Billy Bang Sextet"
INDEX 00 06:57:00
FILE "03 - Sad Song.wav" WAVE
INDEX 01 00:00:00
TRACK 04 AUDIO
TITLE "Abuella"
PERFORMER "Billy Bang Sextet"
INDEX 00 04:37:00
FILE "04 - Abuella.wav" WAVE
INDEX 01 00:00:00
TRACK 05 AUDIO
TITLE "Rainbow Gladiator"
PERFORMER "Billy Bang Sextet"
INDEX 00 13:40:00
FILE "05 - Rainbow Gladiator.wav" WAVE
INDEX 01 00:00:00
TRACK 06 AUDIO
TITLE "Going Through"
PERFORMER "Billy Bang Sextet"
INDEX 00 05:48:00
FILE "06 - Going Through.wav" WAVE
INDEX 01 00:00:00
Доп. информация:
Recorded at Carlos 1, New York City on 11/23/86
Cover art : Jeff Schlanger
 
Об исполнителе (группе)
William Vincent Walker: American free jazz violinist and composer, born September 20, 1947, Mobile, Alabama.
 
Об альбоме (сборнике)
Violinist Billy Bang uses the same instrumentation on this set as on his previous The Fire From Within, although his sextet had two new members: trumpeter Roy Campbell and drummer Zen Matsuura. A more rhythmic album, this melodic avant-garde set rewards repeated listenings and has an impressive amount of variety.
 
Состав
Billy Bang-violin,clave
Roy Campbell-trumpet
Oscar Sanders-guitar
Thurman Barker-marimba,percussion
William Parker-bass
Zen Matsuura-drums
Eddie Conde-congas (on 2 & 4)
По всем вопросам пишите личное сообщение пользователю M0p94ok.
05:53
218
Нет комментариев. Ваш будет первым!