Вы используете незарегистрированную версию компонента "Вкладки"!

Поиск

(Avant-Garde Jazz, Free Jazz) Battaglia - Dalla Porta - Pifarely - Triplicity - 1995, FLAC (tracks+.cue) lossless

Треклист:
Battaglia - Dalla Porta - Pifarely - Triplicity
Жанр: Avant-Garde Jazz, Free Jazz
Страна-производитель диска: Italy
Год издания диска: 1995
Издатель (лейбл): Dischi della Quercia
Номер по каталогу: DDQ 128010-2
Страна: Italy
Аудио кодек: FLAC (*.flac)
Тип рипа: tracks+.cue
Битрейт аудио: lossless
Продолжительность: 1:03:22
Источник (релизер): собственный рип с оригинального диска.
Наличие сканов в содержимом раздачи: да
Треклист:
01. TRIO 1 7:23
02. TRIO 2 3:59
03. TRIO 3 3:59
04. TEAR 4:57
05. FUGACE 2:54
06. TRIO 4 1:43
07. TRIO 5 3:15
08. TRIO 6 4:00
09. ETUDE TRADITIONNELLE 3:48
10. IN THE WOOD 2:58
11. TRIO 7 3:38
12. TRIO 8 2:42
13. TRIO 9 5:12
14. OAK 1:24
15. IS 3:37
16. TRIO 10 3:16
17. TRIO 11 2:18
18. TRIO 12 4:56
 
Лог создания рипа
Exact Audio Copy V0.99 prebeta 5 from 4. May 2009
EAC extraction logfile from 6. December 2010, 19:38
Battaglia - Dalla Porta - Pifarely / Triplicity
Used drive : TSSTcorpCDDVDW SH-S222A Adapter: 1 ID: 0
Read mode : Secure
Utilize accurate stream : Yes
Defeat audio cache : Yes
Make use of C2 pointers : No
Read offset correction : 6
Overread into Lead-In and Lead-Out : No
Fill up missing offset samples with silence : Yes
Delete leading and trailing silent blocks : No
Null samples used in CRC calculations : Yes
Used interface : Native Win32 interface for Win NT & 2000
Gap handling : Appended to previous track
Used output format : User Defined Encoder
Selected bitrate : 768 kBit/s
Quality : High
Add ID3 tag : No
Command line compressor : C:\tool\Audio\Exact Audio Copy\FLAC\FLAC.EXE
Additional command line options : -V -8 -T "ARTIST=%a" -T "TITLE=%t" -T "ALBUM=%g" -T "TRACKNUMBER=%n" -T "GENRE=%m" %s
TOC of the extracted CD
Track | Start | Length | Start sector | End sector
---------------------------------------------------------
1 | 0:00.33 | 7:23.37 | 33 | 33294
2 | 7:23.70 | 3:59.63 | 33295 | 51282
3 | 11:23.58 | 1:22.62 | 51283 | 57494
4 | 12:46.45 | 4:57.38 | 57495 | 79807
5 | 17:44.08 | 2:54.62 | 79808 | 92919
6 | 20:38.70 | 1:43.63 | 92920 | 100707
7 | 22:22.58 | 3:15.52 | 100708 | 115384
8 | 25:38.35 | 4:00.05 | 115385 | 133389
9 | 29:38.40 | 3:48.18 | 133390 | 150507
10 | 33:26.58 | 2:58.62 | 150508 | 163919
11 | 36:25.45 | 3:38.63 | 163920 | 180332
12 | 40:04.33 | 2:42.20 | 180333 | 192502
13 | 42:46.53 | 5:12.65 | 192503 | 215967
14 | 47:59.43 | 1:24.15 | 215968 | 222282
15 | 49:23.58 | 3:37.50 | 222283 | 238607
16 | 53:01.33 | 3:16.27 | 238608 | 253334
17 | 56:17.60 | 2:18.73 | 253335 | 263757
18 | 58:36.58 | 4:56.50 | 263758 | 286007
Track 1
Filename C:\! RUTRACKER\ru up\Stefano Battaglia - Triplicity\01 - Trio 1.wav
Pre-gap length 0:00:02.33
Peak level 92.0 %
Track quality 100.0 %
Test CRC B93A0248
Copy CRC B93A0248
Track not present in AccurateRip database
Copy OK
Track 2
Filename C:\! RUTRACKER\ru up\Stefano Battaglia - Triplicity\02 - Trio 2.wav
Peak level 100.0 %
Track quality 100.0 %
Test CRC 9201D4DD
Copy CRC 9201D4DD
Track not present in AccurateRip database
Copy OK
Track 3
Filename C:\! RUTRACKER\ru up\Stefano Battaglia - Triplicity\03 - Trio 3.wav
Peak level 95.2 %
Track quality 100.0 %
Test CRC CF31CD92
Copy CRC CF31CD92
Track not present in AccurateRip database
Copy OK
Track 4
Filename C:\! RUTRACKER\ru up\Stefano Battaglia - Triplicity\04 - Tear.wav
Pre-gap length 0:00:03.12
Peak level 66.6 %
Track quality 99.9 %
Test CRC B7A4A43F
Copy CRC B7A4A43F
Track not present in AccurateRip database
Copy OK
Track 5
Filename C:\! RUTRACKER\ru up\Stefano Battaglia - Triplicity\05 - Fagace.wav
Peak level 86.6 %
Track quality 100.0 %
Test CRC C65EC4D0
Copy CRC C65EC4D0
Track not present in AccurateRip database
Copy OK
Track 6
Filename C:\! RUTRACKER\ru up\Stefano Battaglia - Triplicity\06 - Trio 4.wav
Peak level 88.0 %
Track quality 100.0 %
Test CRC 87EA1C95
Copy CRC 87EA1C95
Track not present in AccurateRip database
Copy OK
Track 7
Filename C:\! RUTRACKER\ru up\Stefano Battaglia - Triplicity\07 - Trio 5.wav
Peak level 100.0 %
Track quality 100.0 %
Test CRC B00E55D4
Copy CRC B00E55D4
Track not present in AccurateRip database
Copy OK
Track 8
Filename C:\! RUTRACKER\ru up\Stefano Battaglia - Triplicity\08 - Trio 6.wav
Peak level 100.0 %
Track quality 99.9 %
Test CRC 43560D50
Copy CRC 43560D50
Track not present in AccurateRip database
Copy OK
Track 9
Filename C:\! RUTRACKER\ru up\Stefano Battaglia - Triplicity\09 - Etude Traditionnelle.wav
Peak level 98.1 %
Track quality 100.0 %
Test CRC D2080CD2
Copy CRC D2080CD2
Track not present in AccurateRip database
Copy OK
Track 10
Filename C:\! RUTRACKER\ru up\Stefano Battaglia - Triplicity\10 - In The Wood.wav
Peak level 78.1 %
Track quality 100.0 %
Test CRC C3B42FED
Copy CRC C3B42FED
Track not present in AccurateRip database
Copy OK
Track 11
Filename C:\! RUTRACKER\ru up\Stefano Battaglia - Triplicity\11 - Trio 7.wav
Peak level 28.1 %
Track quality 99.9 %
Test CRC B3CA4F7A
Copy CRC B3CA4F7A
Track not present in AccurateRip database
Copy OK
Track 12
Filename C:\! RUTRACKER\ru up\Stefano Battaglia - Triplicity\12 - Trio 8.wav
Peak level 93.1 %
Track quality 100.0 %
Test CRC 07DB681E
Copy CRC 07DB681E
Track not present in AccurateRip database
Copy OK
Track 13
Filename C:\! RUTRACKER\ru up\Stefano Battaglia - Triplicity\13 - Trio 9.wav
Peak level 100.0 %
Track quality 100.0 %
Test CRC 75C49019
Copy CRC 75C49019
Track not present in AccurateRip database
Copy OK
Track 14
Filename C:\! RUTRACKER\ru up\Stefano Battaglia - Triplicity\14 - Oak.wav
Peak level 100.0 %
Track quality 100.0 %
Test CRC BB10AE9A
Copy CRC BB10AE9A
Track not present in AccurateRip database
Copy OK
Track 15
Filename C:\! RUTRACKER\ru up\Stefano Battaglia - Triplicity\15 - Is.wav
Peak level 58.3 %
Track quality 100.0 %
Test CRC D2D8F428
Copy CRC D2D8F428
Track not present in AccurateRip database
Copy OK
Track 16
Filename C:\! RUTRACKER\ru up\Stefano Battaglia - Triplicity\16 - Trio 10.wav
Peak level 77.2 %
Track quality 100.0 %
Test CRC B9784E6D
Copy CRC B9784E6D
Track not present in AccurateRip database
Copy OK
Track 17
Filename C:\! RUTRACKER\ru up\Stefano Battaglia - Triplicity\17 - Trio 11.wav
Peak level 69.1 %
Track quality 100.0 %
Test CRC FF76424A
Copy CRC FF76424A
Track not present in AccurateRip database
Copy OK
Track 18
Filename C:\! RUTRACKER\ru up\Stefano Battaglia - Triplicity\18 - Trio 12.wav
Peak level 86.0 %
Track quality 100.0 %
Test CRC 6EDF5856
Copy CRC 6EDF5856
Track not present in AccurateRip database
Copy OK
None of the tracks are present in the AccurateRip database
No errors occurred
End of status report
 
Содержание индексной карты (.CUE)
REM GENRE Jazz
REM DATE 1995
REM DISCID 0E0EE512
REM COMMENT "ExactAudioCopy v0.99pb5"
PERFORMER "Battaglia - Dalla Porta - Pifarely"
TITLE "Triplicity"
FILE "01 - Trio 1.wav" WAVE
TRACK 01 AUDIO
TITLE "Trio 1"
PERFORMER "Battaglia - Dalla Porta - Pifarely"
PREGAP 00:00:33
INDEX 01 00:00:00
FILE "02 - Trio 2.wav" WAVE
TRACK 02 AUDIO
TITLE "Trio 2"
PERFORMER "Battaglia - Dalla Porta - Pifarely"
INDEX 01 00:00:00
FILE "03 - Trio 3.wav" WAVE
TRACK 03 AUDIO
TITLE "Trio 3"
PERFORMER "Battaglia - Dalla Porta - Pifarely"
INDEX 01 00:00:00
TRACK 04 AUDIO
TITLE "Tear"
PERFORMER "Battaglia - Dalla Porta - Pifarely"
INDEX 00 01:19:50
FILE "04 - Tear.wav" WAVE
INDEX 01 00:00:00
FILE "05 - Fagace.wav" WAVE
TRACK 05 AUDIO
TITLE "Fagace"
PERFORMER "Battaglia - Dalla Porta - Pifarely"
INDEX 01 00:00:00
FILE "06 - Trio 4.wav" WAVE
TRACK 06 AUDIO
TITLE "Trio 4"
PERFORMER "Battaglia - Dalla Porta - Pifarely"
INDEX 01 00:00:00
FILE "07 - Trio 5.wav" WAVE
TRACK 07 AUDIO
TITLE "Trio 5"
PERFORMER "Battaglia - Dalla Porta - Pifarely"
INDEX 01 00:00:00
FILE "08 - Trio 6.wav" WAVE
TRACK 08 AUDIO
TITLE "Trio 6"
PERFORMER "Battaglia - Dalla Porta - Pifarely"
INDEX 01 00:00:00
FILE "09 - Etude Traditionnelle.wav" WAVE
TRACK 09 AUDIO
TITLE "Etude Traditionnelle"
PERFORMER "Battaglia - Dalla Porta - Pifarely"
INDEX 01 00:00:00
FILE "10 - In The Wood.wav" WAVE
TRACK 10 AUDIO
TITLE "In The Wood"
PERFORMER "Battaglia - Dalla Porta - Pifarely"
INDEX 01 00:00:00
FILE "11 - Trio 7.wav" WAVE
TRACK 11 AUDIO
TITLE "Trio 7"
PERFORMER "Battaglia - Dalla Porta - Pifarely"
INDEX 01 00:00:00
FILE "12 - Trio 8.wav" WAVE
TRACK 12 AUDIO
TITLE "Trio 8"
PERFORMER "Battaglia - Dalla Porta - Pifarely"
INDEX 01 00:00:00
FILE "13 - Trio 9.wav" WAVE
TRACK 13 AUDIO
TITLE "Trio 9"
PERFORMER "Battaglia - Dalla Porta - Pifarely"
INDEX 01 00:00:00
FILE "14 - Oak.wav" WAVE
TRACK 14 AUDIO
TITLE "Oak"
PERFORMER "Battaglia - Dalla Porta - Pifarely"
INDEX 01 00:00:00
FILE "15 - Is.wav" WAVE
TRACK 15 AUDIO
TITLE "Is"
PERFORMER "Battaglia - Dalla Porta - Pifarely"
INDEX 01 00:00:00
FILE "16 - Trio 10.wav" WAVE
TRACK 16 AUDIO
TITLE "Trio 10"
PERFORMER "Battaglia - Dalla Porta - Pifarely"
INDEX 01 00:00:00
FILE "17 - Trio 11.wav" WAVE
TRACK 17 AUDIO
TITLE "Trio 11"
PERFORMER "Battaglia - Dalla Porta - Pifarely"
INDEX 01 00:00:00
FILE "18 - Trio 12.wav" WAVE
TRACK 18 AUDIO
TITLE "Trio 12"
PERFORMER "Battaglia - Dalla Porta - Pifarely"
INDEX 01 00:00:00
Доп. информация:
Recorded on November 20 and 21, 1993 at MuRec Studio, Milano.
 
Об исполнителе (группе)
Italian pianist Stefano Battaglia has recorded regularly for the Splasc(h) label since his debut as a leader in 1987, Things Ain't What They Used to Be. By that time, he had been playing piano for 15 years and had graduated from the Conservatory of Milan three years prior. Active in both classical and jazz music, he has performed at a number of European festivals of each, including the 1986 J.S. Bach Festival in Düsseldorf and the Umbria Jazz Festival on several occasions during the '80s and '90s.
Battaglia has collaborated with a range of jazz musicians from Kenny Wheeler to Lee Konitz, from Barre Phillips to a number of musicians active on the Italian scene, including frequent collaborator bassist Paolino Dalla Porta. He has also taught jazz for a number of years in Siena. Battaglia has led more than 15 recordings in settings ranging from solo (such as Baptism and the Swiss Radio Tapes releases) to his 16-piece ensemble Theatrum (heard on three 1997 recordings, including Gesti). He also has ongoing duo projects with pianist Enrico Pieranunzi and with drummer Tony Oxley, and is in the trio ALA with cellist Chico Marquez and clarinetist Gabriele Mirabassi. Battaglia's more recent releases include The Book of Jazz, Vol. 1 from Symphonia in 2001, and Raccolto and Re: Pasolini both from ECM in 2006 and 2007, respectively.
 
Состав
Stefano Battaglia - piano
Dominique Pifarely - violin
Paolino Dalla Porta -bass
По всем вопросам пишите личное сообщение пользователю M0p94ok.
06:23
159
Нет комментариев. Ваш будет первым!