Вы используете незарегистрированную версию компонента "Вкладки"!

Поиск

(Avant-Garde Jazz, Free Jazz) Anthony Braxton - Six Monk's Compositions (1987) - 1988, FLAC (tracks+.cue), lossless

Треклист:
Anthony Braxton - Six Monk's Compositions (1987)
Жанр: Avant-Garde Jazz, Free Jazz
Страна-производитель диска: Италия
Год издания диска: 1988
Издатель (лейбл): Black Saint
Номер по каталогу: 120116-2
Аудиокодек: FLAC (*.flac)
Тип рипа: tracks+.cue
Битрейт аудио: lossless
Продолжительность: 44:13
Источник (релизер): jazznik (liveinjazz)
Наличие сканов в содержимом раздачи: да
Треклист:
01. Brilliant Corners - 9:19
02. Reflections - 4:54
03. Played Twice - 6:47
04. Four in One - 9:37
05. As Me Now - 6:32
06. Skippy - 6:44
All compositions by Thelonious Monk.
Состав:
Anthony Braxton - alto saxophone
Mal Waldron - piano
Buell Neidlinger - bass
Bill Osborne - drums
Recorded on June 30 and July 1, 1987 at Barigozzi Studio, Milano.
 
Лог создания рипа
Exact Audio Copy V0.99 prebeta 4 from 23. January 2008
EAC extraction logfile from 31. May 2009, 19:52
Anthony Braxton / Six Monk's Compositions (1987)
Used drive : TSSTcorpDVD+-RW TS-H553A Adapter: 1 ID: 0
Read mode : Secure
Utilize accurate stream : Yes
Defeat audio cache : Yes
Make use of C2 pointers : No
Read offset correction : 6
Overread into Lead-In and Lead-Out : No
Fill up missing offset samples with silence : Yes
Delete leading and trailing silent blocks : No
Null samples used in CRC calculations : Yes
Used interface : Installed external ASPI interface
Gap handling : Appended to previous track
Used output format : User Defined Encoder
Selected bitrate : 768 kBit/s
Quality : High
Add ID3 tag : No
Command line compressor : D:\Archivos de programa\Exact Audio Copy\FLAC\FLAC.EXE
Additional command line options : -6 -V -T "ARTIST=%a" -T "TITLE=%t" -T "ALBUM=%g" -T "DATE=%y" -T "TRACKNUMBER=%n" -T "GENRE=%m" -T "COMMENT=%e" %s -o %d
TOC of the extracted CD
Track | Start | Length | Start sector | End sector
---------------------------------------------------------
1 | 0:00.33 | 9:24.00 | 33 | 42332
2 | 9:24.33 | 4:58.00 | 42333 | 64682
3 | 14:22.33 | 6:51.00 | 64683 | 95507
4 | 21:13.33 | 9:41.00 | 95508 | 139082
5 | 30:54.33 | 6:35.00 | 139083 | 168707
6 | 37:29.33 | 6:44.00 | 168708 | 199007
Track 1
Filename C:\Discos RS\Anthony Braxton - Six Monk's Compositions (1987) [Black Saint]\Anthony Braxton - Six Monk's Compositions (1987) - 01. Brilliant Corners.wav
Pre-gap length 0:00:02.33
Peak level 73.0 %
Track quality 100.0 %
Copy CRC EB172A64
Track not present in AccurateRip database
Copy OK
Track 2
Filename C:\Discos RS\Anthony Braxton - Six Monk's Compositions (1987) [Black Saint]\Anthony Braxton - Six Monk's Compositions (1987) - 02. Reflections.wav
Pre-gap length 0:00:05.00
Peak level 69.8 %
Track quality 100.0 %
Copy CRC 2E290DA8
Track not present in AccurateRip database
Copy OK
Track 3
Filename C:\Discos RS\Anthony Braxton - Six Monk's Compositions (1987) [Black Saint]\Anthony Braxton - Six Monk's Compositions (1987) - 03. Played Twice.wav
Pre-gap length 0:00:04.00
Peak level 76.7 %
Track quality 100.0 %
Copy CRC 1F05C0DF
Track not present in AccurateRip database
Copy OK
Track 4
Filename C:\Discos RS\Anthony Braxton - Six Monk's Compositions (1987) [Black Saint]\Anthony Braxton - Six Monk's Compositions (1987) - 04. Four In One.wav
Pre-gap length 0:00:04.00
Peak level 88.9 %
Track quality 100.0 %
Copy CRC E288706B
Track not present in AccurateRip database
Copy OK
Track 5
Filename C:\Discos RS\Anthony Braxton - Six Monk's Compositions (1987) [Black Saint]\Anthony Braxton - Six Monk's Compositions (1987) - 05. Ask Me Now.wav
Pre-gap length 0:00:04.00
Peak level 82.0 %
Track quality 100.0 %
Copy CRC 11E4B84F
Track not present in AccurateRip database
Copy OK
Track 6
Filename C:\Discos RS\Anthony Braxton - Six Monk's Compositions (1987) [Black Saint]\Anthony Braxton - Six Monk's Compositions (1987) - 06. Skippy.wav
Pre-gap length 0:00:03.00
Peak level 81.6 %
Track quality 100.0 %
Copy CRC 7E257961
Track not present in AccurateRip database
Copy OK
None of the tracks are present in the AccurateRip database
No errors occurred
End of status report
 
Содержание индексной карты (.CUE)
REM GENRE Jazz
REM DATE 1987
REM DISCID 520A5D06
REM COMMENT "ExactAudioCopy v0.99pb4"
PERFORMER "Anthony Braxton"
TITLE "Six Monk's Compositions (1987)"
FILE "01 - Brilliant Corners.wav" WAVE
TRACK 01 AUDIO
TITLE "Brilliant Corners"
PERFORMER "Anthony Braxton"
PREGAP 00:00:33
INDEX 01 00:00:00
TRACK 02 AUDIO
TITLE "Reflections"
PERFORMER "Anthony Braxton"
INDEX 00 09:19:00
FILE "02 - Reflections.wav" WAVE
INDEX 01 00:00:00
TRACK 03 AUDIO
TITLE "Played Twice"
PERFORMER "Anthony Braxton"
INDEX 00 04:54:00
FILE "03 - Played Twice.wav" WAVE
INDEX 01 00:00:00
TRACK 04 AUDIO
TITLE "Four in One"
PERFORMER "Anthony Braxton"
INDEX 00 06:47:00
FILE "04 - Four in One.wav" WAVE
INDEX 01 00:00:00
TRACK 05 AUDIO
TITLE "Ask Me Now"
PERFORMER "Anthony Braxton"
INDEX 00 09:37:00
FILE "05 - Ask Me Now.wav" WAVE
INDEX 01 00:00:00
TRACK 06 AUDIO
TITLE "Skippy"
PERFORMER "Anthony Braxton"
INDEX 00 06:32:00
FILE "06 - Skippy.wav" WAVE
INDEX 01 00:00:00
 
Review by Thom Jurek
The band Anthony Braxton assembled for this unique exploration of the compositions of Thelonious Monk is one of the wonders of the composer's retinue. Braxton, pianist Mal Waldron, bassist Buell Neidlinger, and drummer Bill Osborne use six Monk tunes and go hunting for harmonic invention; in order, they are "Brilliant Corners," "Reflections," "Played Twice," "Four in One," "Ask Me Now," and "Skippy." From the jump, the listener can tell this is no ordinary Monk tribute. The music is fast, skittering along at a dervish's pace on "Brilliant Corners," and Braxton's horn -- an alto on this album -- moves right for that street where interval meets modulation and sticks his solo in the center, careening over the arrangement -- which is what the tune is in essence, an arrangement rather than a "song" -- and slipping just behind the beat to allow Waldron's brittle, almost angular percussive sonority to define the melody enough to move around the harmonic framework. And this is only the beginning. The other five compositions here are treated in a similar fashion, in that they are radically reinterpreted, played and executed with a degree of musicianship seldom found on any tribute. Braxton's intent was to get at the knotty -- even nutty -- harmonic and rhythmic idiosyncrasies that make Monk's music connect so deeply and widely yet remain difficult to interpret correctly. If all you get is a listen to "Four in One" or "Skippy," just listen to how completely each of these musicians reinvents himself to approach the material. On alternating tunes, Braxton and Waldron provide the catalyst, but all four become changelings in light of this intense and addictive harmonic conception.
Any questions -> support@pro-jazz.com. По всем вопросам пишите -> support@pro-jazz.com
14:31
207
Нет комментариев. Ваш будет первым!