Вы используете незарегистрированную версию компонента "Вкладки"!

Поиск

(Avant-Garde Jazz, Free Improvisation, World Fusion) Many Axes (Susan Rawcliffe, Brad Dutz, Scott Wilkinson) - 2 Many Axes - 2003, FLAC (tracks+.cue), lossless

(Avant-Garde Jazz, Free Improvisation, World Fusion) Many Axes (Susan Rawcliffe, Brad Dutz, Scott Wilkinson) - 2 Many Axes - 2003, FLAC (tracks+.cue), lossless
Треклист:
Many Axes (Susan Rawcliffe, Brad Dutz, Scott Wilkinson) / 2 Many Axes
Жанр: Avant-Garde Jazz, Free Improvisation, World Fusion
Страна-производитель диска: US
Год издания: 2003
Издатель (лейбл): pfMENTUM
Номер по каталогу: CD020
Страна: US
Аудиокодек: FLAC (*.flac)
Тип рипа: tracks+.cue
Битрейт аудио: lossless
Продолжительность: 55:25
Источник (релизер): свой фирменный диск
Наличие сканов в содержимом раздачи: нет
Треклист:
1 March Of The Whales 4:13
2 Circuspace 5:46
3 Pillbug's Nightmare 1:24
4 Drama Dairy 4:05
5 Entropy 9:38
6 Roll Over Johann 2:00
7 Mastodon Stew 2:33
8 Unheard Melodies 5:07
9 Buried There 5:16
10 Dali Comma 4:43
11 Puddle 1:20
12 Popping Beetles 4:53
13 Anti Carlos 3:50
 
Лог создания рипа
Exact Audio Copy V1.0 beta 2 from 29. April 2011
EAC extraction logfile from 22. November 2012, 22:33
Many Axes / 2 Many Axes
Used drive : TSSTcorpCDDVDW SH-222AB Adapter: 1 ID: 0
Read mode : Secure
Utilize accurate stream : Yes
Defeat audio cache : Yes
Make use of C2 pointers : No
Read offset correction : 6
Overread into Lead-In and Lead-Out : No
Fill up missing offset samples with silence : Yes
Delete leading and trailing silent blocks : No
Null samples used in CRC calculations : Yes
Used interface : Installed external ASPI interface
Gap handling : Appended to previous track
Used output format : User Defined Encoder
Selected bitrate : 896 kBit/s
Quality : High
Add ID3 tag : No
Command line compressor : C:\Program Files\Exact Audio Copy\FLAC\FLAC.EXE
Additional command line options : -6 -V -T "ARTIST=%artist%" -T "TITLE=%title%" -T "ALBUM=%albumtitle%" -T "DATE=%year%" -T "TRACKNUMBER=%tracknr%" -T "GENRE=%genre%" -T "COMMENT=%comment%" -T "BAND=%albuminterpret%" -T "COMPOSER=%composer%" %haslyrics%--ta
TOC of the extracted CD
Track | Start | Length | Start sector | End sector
---------------------------------------------------------
1 | 0:00.00 | 4:16.03 | 0 | 19202
2 | 4:16.03 | 5:48.40 | 19203 | 45342
3 | 10:04.43 | 1:26.42 | 45343 | 51834
4 | 11:31.10 | 4:06.70 | 51835 | 70354
5 | 15:38.05 | 9:41.01 | 70355 | 113930
6 | 25:19.06 | 2:03.24 | 113931 | 123179
7 | 27:22.30 | 2:36.68 | 123180 | 134947
8 | 29:59.23 | 5:08.62 | 134948 | 158109
9 | 35:08.10 | 5:19.31 | 158110 | 182065
10 | 40:27.41 | 4:45.46 | 182066 | 203486
11 | 45:13.12 | 1:22.00 | 203487 | 209636
12 | 46:35.12 | 4:56.35 | 209637 | 231871
13 | 51:31.47 | 3:53.30 | 231872 | 249376
Track 1
Filename D:\zzz\01 - March Of The Whales.wav
Pre-gap length 0:00:02.00
Peak level 83.7 %
Extraction speed 2.8 X
Track quality 100.0 %
Test CRC D00B7C09
Copy CRC D00B7C09
Track not present in AccurateRip database
Copy OK
Track 2
Filename D:\zzz\02 - Circuspace.wav
Pre-gap length 0:00:02.57
Peak level 89.6 %
Extraction speed 2.8 X
Track quality 100.0 %
Test CRC F2B49A67
Copy CRC F2B49A67
Track not present in AccurateRip database
Copy OK
Track 3
Filename D:\zzz\03 - Pillbug's Nightmare.wav
Pre-gap length 0:00:01.71
Peak level 80.3 %
Extraction speed 2.2 X
Track quality 100.0 %
Test CRC 3A99BA61
Copy CRC 3A99BA61
Track not present in AccurateRip database
Copy OK
Track 4
Filename D:\zzz\04 - Drama Dairy.wav
Pre-gap length 0:00:02.07
Peak level 94.9 %
Extraction speed 2.7 X
Track quality 100.0 %
Test CRC 695A72C9
Copy CRC 695A72C9
Track not present in AccurateRip database
Copy OK
Track 5
Filename D:\zzz\05 - Entropy.wav
Pre-gap length 0:00:00.70
Peak level 84.7 %
Extraction speed 2.8 X
Track quality 99.9 %
Test CRC B254A3F1
Copy CRC B254A3F1
Track not present in AccurateRip database
Copy OK
Track 6
Filename D:\zzz\06 - Roll Over Johann.wav
Pre-gap length 0:00:02.03
Peak level 79.1 %
Extraction speed 2.4 X
Track quality 100.0 %
Test CRC E7D1BC29
Copy CRC E7D1BC29
Track not present in AccurateRip database
Copy OK
Track 7
Filename D:\zzz\07 - Mastodon Stew.wav
Pre-gap length 0:00:03.03
Peak level 81.5 %
Extraction speed 2.5 X
Track quality 100.0 %
Test CRC 5E53D5AF
Copy CRC 5E53D5AF
Track not present in AccurateRip database
Copy OK
Track 8
Filename D:\zzz\08 - Unheard Melodies.wav
Pre-gap length 0:00:02.62
Peak level 95.1 %
Extraction speed 2.8 X
Track quality 100.0 %
Test CRC F1350A16
Copy CRC F1350A16
Track not present in AccurateRip database
Copy OK
Track 9
Filename D:\zzz\09 - Buried There.wav
Pre-gap length 0:00:01.15
Peak level 90.0 %
Extraction speed 2.8 X
Track quality 100.0 %
Test CRC 22FFE38B
Copy CRC 22FFE38B
Track not present in AccurateRip database
Copy OK
Track 10
Filename D:\zzz\10 - Dali Comma.wav
Pre-gap length 0:00:02.53
Peak level 86.4 %
Extraction speed 2.8 X
Track quality 100.0 %
Test CRC 90246066
Copy CRC 90246066
Track not present in AccurateRip database
Copy OK
Track 11
Filename D:\zzz\11 - Puddle.wav
Pre-gap length 0:00:02.46
Peak level 88.1 %
Extraction speed 1.6 X
Track quality 99.8 %
Test CRC 4F073E00
Copy CRC 4F073E00
Track not present in AccurateRip database
Copy OK
Track 12
Filename D:\zzz\12 - Popping Beetles.wav
Pre-gap length 0:00:01.09
Peak level 79.3 %
Extraction speed 2.5 X
Track quality 99.9 %
Test CRC 4F7ECE55
Copy CRC 4F7ECE55
Track not present in AccurateRip database
Copy OK
Track 13
Filename D:\zzz\13 - Anti Carlos.wav
Pre-gap length 0:00:02.49
Peak level 99.3 %
Extraction speed 2.3 X
Track quality 99.9 %
Test CRC 0DBA36BC
Copy CRC 0DBA36BC
Track not present in AccurateRip database
Copy OK
None of the tracks are present in the AccurateRip database
No errors occurred
End of status report
==== Log checksum ED2823C07980ADD40F3D92CC87072639632D67DC70455962F33D01FD2CB4C776 ====
 
Содержание индексной карты (.CUE)
REM GENRE Avantgarde
REM DATE 2003
REM DISCID AA0CFD0D
REM COMMENT "ExactAudioCopy v1.0b2"
PERFORMER "Many Axes"
TITLE "2 Many Axes"
FILE "01 - March Of The Whales.wav" WAVE
TRACK 01 AUDIO
TITLE "March Of The Whales"
PERFORMER "Many Axes"
INDEX 01 00:00:00
TRACK 02 AUDIO
TITLE "Circuspace"
PERFORMER "Many Axes"
INDEX 00 04:13:21
FILE "02 - Circuspace.wav" WAVE
INDEX 01 00:00:00
TRACK 03 AUDIO
TITLE "Pillbug's Nightmare"
PERFORMER "Many Axes"
INDEX 00 05:46:44
FILE "03 - Pillbug's Nightmare.wav" WAVE
INDEX 01 00:00:00
TRACK 04 AUDIO
TITLE "Drama Dairy"
PERFORMER "Many Axes"
INDEX 00 01:24:35
FILE "04 - Drama Dairy.wav" WAVE
INDEX 01 00:00:00
TRACK 05 AUDIO
TITLE "Entropy"
PERFORMER "Many Axes"
INDEX 00 04:06:00
FILE "05 - Entropy.wav" WAVE
INDEX 01 00:00:00
TRACK 06 AUDIO
TITLE "Roll Over Johann"
PERFORMER "Many Axes"
INDEX 00 09:38:73
FILE "06 - Roll Over Johann.wav" WAVE
INDEX 01 00:00:00
TRACK 07 AUDIO
TITLE "Mastodon Stew"
PERFORMER "Many Axes"
INDEX 00 02:00:21
FILE "07 - Mastodon Stew.wav" WAVE
INDEX 01 00:00:00
TRACK 08 AUDIO
TITLE "Unheard Melodies"
PERFORMER "Many Axes"
INDEX 00 02:34:06
FILE "08 - Unheard Melodies.wav" WAVE
INDEX 01 00:00:00
TRACK 09 AUDIO
TITLE "Buried There"
PERFORMER "Many Axes"
INDEX 00 05:07:47
FILE "09 - Buried There.wav" WAVE
INDEX 01 00:00:00
TRACK 10 AUDIO
TITLE "Dali Comma"
PERFORMER "Many Axes"
INDEX 00 05:16:53
FILE "10 - Dali Comma.wav" WAVE
INDEX 01 00:00:00
TRACK 11 AUDIO
TITLE "Puddle"
PERFORMER "Many Axes"
INDEX 00 04:43:00
FILE "11 - Puddle.wav" WAVE
INDEX 01 00:00:00
TRACK 12 AUDIO
TITLE "Popping Beetles"
PERFORMER "Many Axes"
INDEX 00 01:20:66
FILE "12 - Popping Beetles.wav" WAVE
INDEX 01 00:00:00
TRACK 13 AUDIO
TITLE "Anti Carlos"
PERFORMER "Many Axes"
INDEX 00 04:53:61
FILE "13 - Anti Carlos.wav" WAVE
INDEX 01 00:00:00
 
Лог проверки качества
d:\>d:\aucdtect -d/-m0 d:\zzz\*.wav
auCDtect: CD records authenticity detector, version 0.8.2
Copyright (c) 2004 Oleg Berngardt. All rights reserved.
Copyright (c) 2004 Alexander Djourik. All rights reserved.
------------------------------------------------------------
Processing file: [01. March Of The Whales.wav]
------------------------------------------------------------
This track looks like CDDA with probability 100%
------------------------------------------------------------
Processing file: [02. Circuspace.wav]
------------------------------------------------------------
This track looks like CDDA with probability 100%
------------------------------------------------------------
Processing file: [03. Pillbug's Nightmare.wav]
------------------------------------------------------------
This track looks like CDDA with probability 100%
------------------------------------------------------------
Processing file: [04. Drama Dairy.wav]
------------------------------------------------------------
This track looks like CDDA with probability 100%
------------------------------------------------------------
Processing file: [05. Entropy.wav]
------------------------------------------------------------
This track looks like CDDA with probability 100%
------------------------------------------------------------
Processing file: [06. Roll Over Johann.wav]
------------------------------------------------------------
This track looks like CDDA with probability 100%
------------------------------------------------------------
Processing file: [07. Mastodon Stew.wav]
------------------------------------------------------------
This track looks like CDDA with probability 100%
------------------------------------------------------------
Processing file: [08. Unheard Melodies.wav]
------------------------------------------------------------
This track looks like CDDA with probability 100%
------------------------------------------------------------
Processing file: [09. Buried There.wav]
------------------------------------------------------------
This track looks like CDDA with probability 100%
------------------------------------------------------------
Processing file: [10. Dali Comma.wav]
------------------------------------------------------------
This track looks like CDDA with probability 99%
------------------------------------------------------------
Processing file: [11. Puddle.wav]
------------------------------------------------------------
This track looks like CDDA with probability 99%
------------------------------------------------------------
Processing file: [12. Popping Beetles.wav]
------------------------------------------------------------
This track looks like CDDA with probability 100%
------------------------------------------------------------
Processing file: [13. Anti Carlos.wav]
------------------------------------------------------------
This track looks like CDDA with probability 100%
------------------------------------------------------------
Final Conclusion:
------------------------------------------------------------
These tracks looks like CDDA with probability 100%
Доп. информация: Allmusic.com сообщает, что это New Age.:) Я и сам несколько поколебался - не отправить ли пластинку куда-нибудь поближе к Стефану Микусу (много всяких диджериду, шакуачи и пр. языческих инструментов). Потом всё же решил, что от вещей типа Mastodon Stew все яппи и прочие поклонники здорового образа жизни в любом случае разбегутся врассыпную.:) Ну, модераторы решат.
 
Состав
Brad Dutz: various percussion
Susan Rawcliffe: didgeridoo, flutes, horns, ocarina, pipes, trumpet, voice, whistle, winds
Scott Wilkinson: bells, percussion, didgeridoo, euphonium, flutes, horns, ocarina, recorder, shakuhachi, suling
Any questions -> support@pro-jazz.com. По всем вопросам пишите -> support@pro-jazz.com
05:45
137
Нет комментариев. Ваш будет первым!