Вы используете незарегистрированную версию компонента "Вкладки"!

Поиск

(Avant-Garde Jazz, Free Improvisation) VA - no99:No Music Festival 1999 {5CD, Box Set} - 2000, FLAC (tracks+.cue), lossless

(Avant-Garde Jazz, Free Improvisation) VA - no99:No Music Festival 1999 {5CD, Box Set} - 2000, FLAC (tracks+.cue), lossless
Треклист:
♦ no99:No Music Festival 1999 {5CD, Box Set} ♦
Жанр: Avant-Garde Jazz, Free Improvisation
Год издания: 2000
Издатель (лейбл): Entartete Kunst
Номер по каталогу: EK2120
Аудиокодек: FLAC (*.flac)
Тип рипа: tracks+.cue
Битрейт аудио: lossless
Продолжительность: 06:08:22
Источник (релизер): ruskaval
Наличие сканов в содержимом раздачи: да
 
♦ CD1 (01:14:29)
Треклист:

01. HMQ [45:00]
02. 'Untitled' [10:44]
03. Zubedubedabidibu [04:16]
04. Tubers [02:04]
05. '...More Mundane Than They Possibly Were' [07:29]
06. Variations On 'For John Cage' [04:54]
 
Лог создания рипа
Exact Audio Copy V0.99 prebeta 5 from 4. May 2009
EAC extraction logfile from 2. April 2013, 2:16
Various / no99 - No Music Festival 1999 (CD1 - M)
Used drive : PLEXTOR DVDR PX-L890SA Adapter: 6 ID: 0
Read mode : Secure
Utilize accurate stream : Yes
Defeat audio cache : Yes
Make use of C2 pointers : No
Read offset correction : 6
Overread into Lead-In and Lead-Out : No
Fill up missing offset samples with silence : Yes
Delete leading and trailing silent blocks : No
Null samples used in CRC calculations : Yes
Used interface : Native Win32 interface for Win NT & 2000
Gap handling : Appended to previous track
Used output format : User Defined Encoder
Selected bitrate : 1024 kBit/s
Quality : High
Add ID3 tag : No
Command line compressor : C:\Program Files (x86)\FLAC\flac.exe
Additional command line options : -8 -V -T "ARTIST=%a" -T "TITLE=%t" -T "ALBUM=%g" -T "DATE=%y" -T "TRACKNUMBER=%n" -T "GENRE=%m" -T "COMMENT=EAC FLAC -8" %s
TOC of the extracted CD
Track | Start | Length | Start sector | End sector
---------------------------------------------------------
1 | 0:00.00 | 45:00.00 | 0 | 202499
2 | 45:00.00 | 10:44.04 | 202500 | 250803
3 | 55:44.04 | 4:16.68 | 250804 | 270071
4 | 60:00.72 | 2:04.55 | 270072 | 279426
5 | 62:05.52 | 7:29.14 | 279427 | 313115
6 | 69:34.66 | 4:54.22 | 313116 | 335187
Track 1
Filename C:\EAC\no99 - No Music Festival 1999 [5CD] {Entartete Kunst}\CD1 - M\01 - Ken Vandermark, Fred Van Hove - HMQ.wav
Pre-gap length 0:00:02.00
Peak level 97.1 %
Track quality 99.9 %
Test CRC 96F6AF37
Copy CRC 96F6AF37
Track not present in AccurateRip database
Copy OK
Track 2
Filename C:\EAC\no99 - No Music Festival 1999 [5CD] {Entartete Kunst}\CD1 - M\02 - Jon Borges - 'Untitled'.wav
Peak level 75.7 %
Track quality 100.0 %
Test CRC 7586BDB4
Copy CRC 7586BDB4
Track not present in AccurateRip database
Copy OK
Track 3
Filename C:\EAC\no99 - No Music Festival 1999 [5CD] {Entartete Kunst}\CD1 - M\03 - Unclean Wiener - Zubedubedabidibu.wav
Peak level 96.8 %
Track quality 100.0 %
Test CRC 13054CC9
Copy CRC 13054CC9
Track not present in AccurateRip database
Copy OK
Track 4
Filename C:\EAC\no99 - No Music Festival 1999 [5CD] {Entartete Kunst}\CD1 - M\04 - Unclean Wiener - Tubers.wav
Peak level 97.3 %
Track quality 100.0 %
Test CRC BD21EC84
Copy CRC BD21EC84
Track not present in AccurateRip database
Copy OK
Track 5
Filename C:\EAC\no99 - No Music Festival 1999 [5CD] {Entartete Kunst}\CD1 - M\05 - Eric Chenaux, Kurt Newman - '...More Mundane Than They Possibly Were'.wav
Peak level 97.8 %
Track quality 100.0 %
Test CRC C240AE63
Copy CRC C240AE63
Track not present in AccurateRip database
Copy OK
Track 6
Filename C:\EAC\no99 - No Music Festival 1999 [5CD] {Entartete Kunst}\CD1 - M\06 - Christian Kiefer - Variations On 'For John Cage'.wav
Peak level 28.0 %
Track quality 100.0 %
Test CRC 6B72B2F0
Copy CRC 6B72B2F0
Track not present in AccurateRip database
Copy OK
None of the tracks are present in the AccurateRip database
No errors occurred
End of status report
 
Содержание индексной карты (.CUE)
REM GENRE "Avant-Garde Jazz"
REM DATE 2000
REM DISCID 4D117506
REM COMMENT "ExactAudioCopy v0.99pb5"
PERFORMER "Various"
TITLE "no99 - No Music Festival 1999 (CD1 - M)"
FILE "01 - Ken Vandermark, Fred Van Hove - HMQ.wav" WAVE
TRACK 01 AUDIO
TITLE "HMQ"
PERFORMER "Ken Vandermark, Fred Van Hove"
INDEX 01 00:00:00
FILE "02 - Jon Borges - 'Untitled'.wav" WAVE
TRACK 02 AUDIO
TITLE "'Untitled'"
PERFORMER "Jon Borges"
INDEX 01 00:00:00
FILE "03 - Unclean Wiener - Zubedubedabidibu.wav" WAVE
TRACK 03 AUDIO
TITLE "Zubedubedabidibu"
PERFORMER "Unclean Wiener"
INDEX 01 00:00:00
FILE "04 - Unclean Wiener - Tubers.wav" WAVE
TRACK 04 AUDIO
TITLE "Tubers"
PERFORMER "Unclean Wiener"
INDEX 01 00:00:00
FILE "05 - Eric Chenaux, Kurt Newman - '...More Mundane Than They Possibly Were'.wav" WAVE
TRACK 05 AUDIO
TITLE "'...More Mundane Than They Possibly Were'"
PERFORMER " Eric Chenaux, Kurt Newman"
INDEX 01 00:00:00
FILE "06 - Christian Kiefer - Variations On 'For John Cage'.wav" WAVE
TRACK 06 AUDIO
TITLE "Variations On 'For John Cage'"
PERFORMER "Christian Kiefer"
INDEX 01 00:00:00
 
♦ CD2 (01:14:03)
Треклист:

01. Raging Battle Excites Her To A Frenzied Dance [35:20]
02. Confident Of Success In Battle, She Leaps Ecstatically Through The Air [11:58]
03. 'Untitled' [11:24]
04. 'Untitled' [15:19]
 
Лог создания рипа
Exact Audio Copy V0.99 prebeta 5 from 4. May 2009
EAC extraction logfile from 2. April 2013, 4:29
Various / no99 - No Music Festival 1999 (CD2 - U)
Used drive : PLEXTOR DVDR PX-L890SA Adapter: 6 ID: 0
Read mode : Secure
Utilize accurate stream : Yes
Defeat audio cache : Yes
Make use of C2 pointers : No
Read offset correction : 6
Overread into Lead-In and Lead-Out : No
Fill up missing offset samples with silence : Yes
Delete leading and trailing silent blocks : No
Null samples used in CRC calculations : Yes
Used interface : Native Win32 interface for Win NT & 2000
Gap handling : Appended to previous track
Used output format : User Defined Encoder
Selected bitrate : 1024 kBit/s
Quality : High
Add ID3 tag : No
Command line compressor : C:\Program Files (x86)\FLAC\flac.exe
Additional command line options : -8 -V -T "ARTIST=%a" -T "TITLE=%t" -T "ALBUM=%g" -T "DATE=%y" -T "TRACKNUMBER=%n" -T "GENRE=%m" -T "COMMENT=EAC FLAC -8" %s
TOC of the extracted CD
Track | Start | Length | Start sector | End sector
---------------------------------------------------------
1 | 0:00.00 | 35:20.27 | 0 | 159026
2 | 35:20.27 | 11:58.30 | 159027 | 212906
3 | 47:18.57 | 11:24.41 | 212907 | 264247
4 | 58:43.23 | 15:19.73 | 264248 | 333245
Track 1
Filename C:\EAC\no99 - No Music Festival 1999 [5CD] {Entartete Kunst}\CD2 - U\01 - Borbetomagus - Raging Battle Excites Her To A Frenzied Dance.wav
Pre-gap length 0:00:02.00
Peak level 98.8 %
Track quality 100.0 %
Test CRC 1A5F31E5
Copy CRC 1A5F31E5
Track not present in AccurateRip database
Copy OK
Track 2
Filename C:\EAC\no99 - No Music Festival 1999 [5CD] {Entartete Kunst}\CD2 - U\02 - Borbetomagus - Confident Of Success In Battle, She Leaps Ecstatically Through The Air.wav
Peak level 98.5 %
Track quality 100.0 %
Test CRC ADF3D5DF
Copy CRC ADF3D5DF
Track not present in AccurateRip database
Copy OK
Track 3
Filename C:\EAC\no99 - No Music Festival 1999 [5CD] {Entartete Kunst}\CD2 - U\03 - Solmania - 'Untitled'.wav
Peak level 98.9 %
Track quality 100.0 %
Test CRC 7FA0CD1A
Copy CRC 7FA0CD1A
Track not present in AccurateRip database
Copy OK
Track 4
Filename C:\EAC\no99 - No Music Festival 1999 [5CD] {Entartete Kunst}\CD2 - U\04 - Jay Bellchamber, Jim O'Rourke - 'Untitled'.wav
Peak level 97.3 %
Track quality 100.0 %
Test CRC E553F07E
Copy CRC E553F07E
Track not present in AccurateRip database
Copy OK
None of the tracks are present in the AccurateRip database
No errors occurred
End of status report
 
Содержание индексной карты (.CUE)
REM GENRE "Avant-Garde Jazz"
REM DATE 2000
REM DISCID 26115B04
REM COMMENT "ExactAudioCopy v0.99pb5"
PERFORMER "Various"
TITLE "no99 - No Music Festival 1999 (CD2 - U)"
FILE "01 - Borbetomagus - Raging Battle Excites Her To A Frenzied Dance.wav" WAVE
TRACK 01 AUDIO
TITLE "Raging Battle Excites Her To A Frenzied Dance"
PERFORMER "Borbetomagus"
INDEX 01 00:00:00
FILE "02 - Borbetomagus - Confident Of Success In Battle, She Leaps Ecstatically Through The Air.wav" WAVE
TRACK 02 AUDIO
TITLE "Confident Of Success In Battle, She Leaps Ecstatically Through The Air"
PERFORMER "Borbetomagus"
INDEX 01 00:00:00
FILE "03 - Solmania - 'Untitled'.wav" WAVE
TRACK 03 AUDIO
TITLE "'Untitled'"
PERFORMER "Solmania"
INDEX 01 00:00:00
FILE "04 - Jay Bellchamber, Jim O'Rourke - 'Untitled'.wav" WAVE
TRACK 04 AUDIO
TITLE "'Untitled'"
PERFORMER "Jay Bellchamber, Jim O'Rourke"
INDEX 01 00:00:00
 
♦ CD3 (01:14:14)
Треклист:

01. 'Untitled' [39:04]
02. I Have Nothing To Say [09:18]
03. I Dreamt I Was Living In Paradise [07:44]
04. Mother Canada [08:39]
05. It's Not My Fault [00:39]
06. No Canada [08:48]
 
Лог создания рипа
Exact Audio Copy V0.99 prebeta 5 from 4. May 2009
EAC extraction logfile from 2. April 2013, 5:47
Various / no99 - No Music Festival 1999 (CD3 - S)
Used drive : PLEXTOR DVDR PX-L890SA Adapter: 6 ID: 0
Read mode : Secure
Utilize accurate stream : Yes
Defeat audio cache : Yes
Make use of C2 pointers : No
Read offset correction : 6
Overread into Lead-In and Lead-Out : No
Fill up missing offset samples with silence : Yes
Delete leading and trailing silent blocks : No
Null samples used in CRC calculations : Yes
Used interface : Native Win32 interface for Win NT & 2000
Gap handling : Appended to previous track
Used output format : User Defined Encoder
Selected bitrate : 1024 kBit/s
Quality : High
Add ID3 tag : No
Command line compressor : C:\Program Files (x86)\FLAC\flac.exe
Additional command line options : -8 -V -T "ARTIST=%a" -T "TITLE=%t" -T "ALBUM=%g" -T "DATE=%y" -T "TRACKNUMBER=%n" -T "GENRE=%m" -T "COMMENT=EAC FLAC -8" %s
TOC of the extracted CD
Track | Start | Length | Start sector | End sector
---------------------------------------------------------
1 | 0:00.00 | 39:04.50 | 0 | 175849
2 | 39:04.50 | 9:18.61 | 175850 | 217760
3 | 48:23.36 | 7:44.01 | 217761 | 252561
4 | 56:07.37 | 8:39.60 | 252562 | 291546
5 | 64:47.22 | 0:39.19 | 291547 | 294490
6 | 65:26.41 | 8:48.05 | 294491 | 334095
Track 1
Filename C:\EAC\no99 - No Music Festival 1999 [5CD] {Entartete Kunst}\CD3 - S\01 - Alan Licht, Michael Snow - 'Untitled'.wav
Pre-gap length 0:00:02.00
Peak level 96.8 %
Track quality 99.9 %
Test CRC CCF64B56
Copy CRC CCF64B56
Track not present in AccurateRip database
Copy OK
Track 2
Filename C:\EAC\no99 - No Music Festival 1999 [5CD] {Entartete Kunst}\CD3 - S\02 - Nihilist Spasm Band - I Have Nothing To Say.wav
Peak level 90.3 %
Track quality 100.0 %
Test CRC 1941AD59
Copy CRC 1941AD59
Track not present in AccurateRip database
Copy OK
Track 3
Filename C:\EAC\no99 - No Music Festival 1999 [5CD] {Entartete Kunst}\CD3 - S\03 - Nihilist Spasm Band - I Dreamt I Was Living In Paradise.wav
Peak level 88.1 %
Track quality 100.0 %
Test CRC D6240AE3
Copy CRC D6240AE3
Track not present in AccurateRip database
Copy OK
Track 4
Filename C:\EAC\no99 - No Music Festival 1999 [5CD] {Entartete Kunst}\CD3 - S\04 - Nihilist Spasm Band - Mother Canada.wav
Peak level 87.2 %
Track quality 100.0 %
Test CRC 6C4B1240
Copy CRC 6C4B1240
Track not present in AccurateRip database
Copy OK
Track 5
Filename C:\EAC\no99 - No Music Festival 1999 [5CD] {Entartete Kunst}\CD3 - S\05 - Nihilist Spasm Band - It's Not My Fault.wav
Peak level 62.3 %
Track quality 100.0 %
Test CRC A382EE39
Copy CRC A382EE39
Track not present in AccurateRip database
Copy OK
Track 6
Filename C:\EAC\no99 - No Music Festival 1999 [5CD] {Entartete Kunst}\CD3 - S\06 - Nihilist Spasm Band - No Canada.wav
Peak level 86.7 %
Track quality 100.0 %
Test CRC 4FAAB2C8
Copy CRC 4FAAB2C8
Track not present in AccurateRip database
Copy OK
None of the tracks are present in the AccurateRip database
No errors occurred
End of status report
 
Содержание индексной карты (.CUE)
REM GENRE "Avant-Garde Jazz"
REM DATE 2000
REM DISCID 68116606
REM COMMENT "ExactAudioCopy v0.99pb5"
PERFORMER "Various"
TITLE "no99 - No Music Festival 1999 (CD3 - S)"
FILE "01 - Alan Licht, Michael Snow - 'Untitled'.wav" WAVE
TRACK 01 AUDIO
TITLE "'Untitled'"
PERFORMER "Alan Licht, Michael Snow"
INDEX 01 00:00:00
FILE "02 - Nihilist Spasm Band - I Have Nothing To Say.wav" WAVE
TRACK 02 AUDIO
TITLE "I Have Nothing To Say"
PERFORMER "Nihilist Spasm Band"
INDEX 01 00:00:00
FILE "03 - Nihilist Spasm Band - I Dreamt I Was Living In Paradise.wav" WAVE
TRACK 03 AUDIO
TITLE "I Dreamt I Was Living In Paradise"
PERFORMER "Nihilist Spasm Band"
INDEX 01 00:00:00
FILE "04 - Nihilist Spasm Band - Mother Canada.wav" WAVE
TRACK 04 AUDIO
TITLE "Mother Canada"
PERFORMER "Nihilist Spasm Band"
INDEX 01 00:00:00
FILE "05 - Nihilist Spasm Band - It's Not My Fault.wav" WAVE
TRACK 05 AUDIO
TITLE "It's Not My Fault"
PERFORMER "Nihilist Spasm Band"
INDEX 01 00:00:00
FILE "06 - Nihilist Spasm Band - No Canada.wav" WAVE
TRACK 06 AUDIO
TITLE "No Canada"
PERFORMER "Nihilist Spasm Band"
INDEX 01 00:00:00
 
♦ CD4 (01:11:17)
Треклист:

01. Friday Interplay [07:08]
02. Friday Interplay [05:33]
03. Friday Interplay [05:45]
04. Friday Interplay [05:45]
05. Friday Interplay [04:40]
06. Friday Interplay [06:25]
07. Friday Interplay [06:12]
08. Friday Interplay [05:15]
09. Friday Interplay [05:34]
10. Friday Interplay [05:03]
11. Saturday Interplay [05:40]
12. Saturday Interplay [08:11]
 
Лог создания рипа
Exact Audio Copy V0.99 prebeta 5 from 4. May 2009
EAC extraction logfile from 2. April 2013, 8:11
Various / no99 - No Music Festival 1999 (CD4 - I)
Used drive : PLEXTOR DVDR PX-L890SA Adapter: 6 ID: 0
Read mode : Secure
Utilize accurate stream : Yes
Defeat audio cache : Yes
Make use of C2 pointers : No
Read offset correction : 6
Overread into Lead-In and Lead-Out : No
Fill up missing offset samples with silence : Yes
Delete leading and trailing silent blocks : No
Null samples used in CRC calculations : Yes
Used interface : Native Win32 interface for Win NT & 2000
Gap handling : Appended to previous track
Used output format : User Defined Encoder
Selected bitrate : 1024 kBit/s
Quality : High
Add ID3 tag : No
Command line compressor : C:\Program Files (x86)\FLAC\flac.exe
Additional command line options : -8 -V -T "ARTIST=%a" -T "TITLE=%t" -T "ALBUM=%g" -T "DATE=%y" -T "TRACKNUMBER=%n" -T "GENRE=%m" -T "COMMENT=EAC FLAC -8" %s
TOC of the extracted CD
Track | Start | Length | Start sector | End sector
---------------------------------------------------------
1 | 0:00.00 | 7:08.07 | 0 | 32106
2 | 7:08.07 | 5:33.70 | 32107 | 57151
3 | 12:42.02 | 5:45.33 | 57152 | 83059
4 | 18:27.35 | 5:45.58 | 83060 | 108992
5 | 24:13.18 | 4:40.34 | 108993 | 130026
6 | 28:53.52 | 6:25.37 | 130027 | 158938
7 | 35:19.14 | 6:12.29 | 158939 | 186867
8 | 41:31.43 | 5:15.67 | 186868 | 210559
9 | 46:47.35 | 5:34.27 | 210560 | 235636
10 | 52:21.62 | 5:03.61 | 235637 | 258422
11 | 57:25.48 | 5:40.35 | 258423 | 283957
12 | 63:06.08 | 8:11.57 | 283958 | 320839
Track 1
Filename C:\EAC\no99 - No Music Festival 1999 [5CD] {Entartete Kunst}\CD4 - I\01 - Borges, A. Pratten, Murray Favro, G. Curnoe - Friday Interplay.wav
Pre-gap length 0:00:02.00
Peak level 89.0 %
Track quality 100.0 %
Test CRC 32AF0215
Copy CRC 32AF0215
Track not present in AccurateRip database
Copy OK
Track 2
Filename C:\EAC\no99 - No Music Festival 1999 [5CD] {Entartete Kunst}\CD4 - I\02 - Licht, Vandermark, O'Rourke, Clement - Friday Interplay.wav
Peak level 83.5 %
Track quality 100.0 %
Test CRC 37E1041C
Copy CRC 37E1041C
Track not present in AccurateRip database
Copy OK
Track 3
Filename C:\EAC\no99 - No Music Festival 1999 [5CD] {Entartete Kunst}\CD4 - I\03 - Ohnishi, Ohno, McIntyre - Friday Interplay.wav
Peak level 97.7 %
Track quality 100.0 %
Test CRC 94B1A973
Copy CRC 94B1A973
Track not present in AccurateRip database
Copy OK
Track 4
Filename C:\EAC\no99 - No Music Festival 1999 [5CD] {Entartete Kunst}\CD4 - I\04 - Licht, Boyle, Bellchamber - Friday Interplay.wav
Peak level 94.0 %
Track quality 100.0 %
Test CRC BE22685B
Copy CRC BE22685B
Track not present in AccurateRip database
Copy OK
Track 5
Filename C:\EAC\no99 - No Music Festival 1999 [5CD] {Entartete Kunst}\CD4 - I\05 - Mark Favro, Clement, Snow - Friday Interplay.wav
Peak level 98.2 %
Track quality 100.0 %
Test CRC 321C59FB
Copy CRC 321C59FB
Track not present in AccurateRip database
Copy OK
Track 6
Filename C:\EAC\no99 - No Music Festival 1999 [5CD] {Entartete Kunst}\CD4 - I\06 - Exley, Glasgow, A. Pratten - Friday Interplay.wav
Peak level 97.5 %
Track quality 99.9 %
Test CRC 865E0E46
Copy CRC 865E0E46
Track not present in AccurateRip database
Copy OK
Track 7
Filename C:\EAC\no99 - No Music Festival 1999 [5CD] {Entartete Kunst}\CD4 - I\07 - Murray Favro, Borges, Ohno - Friday Interplay.wav
Peak level 97.3 %
Track quality 100.0 %
Test CRC 58BFD9BC
Copy CRC 58BFD9BC
Track not present in AccurateRip database
Copy OK
Track 8
Filename C:\EAC\no99 - No Music Festival 1999 [5CD] {Entartete Kunst}\CD4 - I\08 - Vandermark, Boyle, Licht - Friday Interplay.wav
Peak level 98.1 %
Track quality 100.0 %
Test CRC 1E3EF729
Copy CRC 1E3EF729
Track not present in AccurateRip database
Copy OK
Track 9
Filename C:\EAC\no99 - No Music Festival 1999 [5CD] {Entartete Kunst}\CD4 - I\09 - Ohnishi, A. Pratten, Glasgow - Friday Interplay.wav
Peak level 98.4 %
Track quality 100.0 %
Test CRC 96724E2E
Copy CRC 96724E2E
Track not present in AccurateRip database
Copy OK
Track 10
Filename C:\EAC\no99 - No Music Festival 1999 [5CD] {Entartete Kunst}\CD4 - I\10 - O'Rourke, Ohnishi, Bristow, McIntyre - Friday Interplay.wav
Peak level 96.6 %
Track quality 99.9 %
Test CRC A73055F7
Copy CRC A73055F7
Track not present in AccurateRip database
Copy OK
Track 11
Filename C:\EAC\no99 - No Music Festival 1999 [5CD] {Entartete Kunst}\CD4 - I\11 - Ohno, Kota, G. Curnoe, A. Pratten - Saturday Interplay.wav
Peak level 99.9 %
Track quality 100.0 %
Test CRC 8842FE11
Copy CRC 8842FE11
Track not present in AccurateRip database
Copy OK
Track 12
Filename C:\EAC\no99 - No Music Festival 1999 [5CD] {Entartete Kunst}\CD4 - I\12 - Miller, Ohno, Dietrich - Saturday Interplay.wav
Peak level 94.4 %
Track quality 100.0 %
Test CRC B466DA2B
Copy CRC B466DA2B
Track not present in AccurateRip database
Copy OK
None of the tracks are present in the AccurateRip database
No errors occurred
End of status report
 
Содержание индексной карты (.CUE)
REM GENRE "Avant-Garde Jazz"
REM DATE 2000
REM DISCID A610B50C
REM COMMENT "ExactAudioCopy v0.99pb5"
PERFORMER "Various"
TITLE "no99 - No Music Festival 1999 (CD4 - I)"
FILE "01 - Borges, A. Pratten, Murray Favro, G. Curnoe - Friday Interplay.wav" WAVE
TRACK 01 AUDIO
TITLE "Friday Interplay"
PERFORMER "Borges, A. Pratten, Murray Favro, G. Curnoe"
INDEX 01 00:00:00
FILE "02 - Licht, Vandermark, O'Rourke, Clement - Friday Interplay.wav" WAVE
TRACK 02 AUDIO
TITLE "Friday Interplay"
PERFORMER "Licht, Vandermark, O'Rourke, Clement"
INDEX 01 00:00:00
FILE "03 - Ohnishi, Ohno, McIntyre - Friday Interplay.wav" WAVE
TRACK 03 AUDIO
TITLE "Friday Interplay"
PERFORMER "Ohnishi, Ohno, McIntyre"
INDEX 01 00:00:00
FILE "04 - Licht, Boyle, Bellchamber - Friday Interplay.wav" WAVE
TRACK 04 AUDIO
TITLE "Friday Interplay"
PERFORMER "Licht, Boyle, Bellchamber"
INDEX 01 00:00:00
FILE "05 - Mark Favro, Clement, Snow - Friday Interplay.wav" WAVE
TRACK 05 AUDIO
TITLE "Friday Interplay"
PERFORMER "Mark Favro, Clement, Snow"
INDEX 01 00:00:00
FILE "06 - Exley, Glasgow, A. Pratten - Friday Interplay.wav" WAVE
TRACK 06 AUDIO
TITLE "Friday Interplay"
PERFORMER "Exley, Glasgow, A. Pratten"
INDEX 01 00:00:00
FILE "07 - Murray Favro, Borges, Ohno - Friday Interplay.wav" WAVE
TRACK 07 AUDIO
TITLE "Friday Interplay"
PERFORMER "Murray Favro, Borges, Ohno"
INDEX 01 00:00:00
FILE "08 - Vandermark, Boyle, Licht - Friday Interplay.wav" WAVE
TRACK 08 AUDIO
TITLE "Friday Interplay"
PERFORMER "Vandermark, Boyle, Licht"
INDEX 01 00:00:00
FILE "09 - Ohnishi, A. Pratten, Glasgow - Friday Interplay.wav" WAVE
TRACK 09 AUDIO
TITLE "Friday Interplay"
PERFORMER "Ohnishi, A. Pratten, Glasgow"
INDEX 01 00:00:00
FILE "10 - O'Rourke, Ohnishi, Bristow, McIntyre - Friday Interplay.wav" WAVE
TRACK 10 AUDIO
TITLE "Friday Interplay"
PERFORMER "O'Rourke, Ohnishi, Bristow, McIntyre"
INDEX 01 00:00:00
FILE "11 - Ohno, Kota, G. Curnoe, A. Pratten - Saturday Interplay.wav" WAVE
TRACK 11 AUDIO
TITLE "Saturday Interplay"
PERFORMER "Ohno, Kota, G. Curnoe, A. Pratten"
INDEX 01 00:00:00
FILE "12 - Miller, Ohno, Dietrich - Saturday Interplay.wav" WAVE
TRACK 12 AUDIO
TITLE "Saturday Interplay"
PERFORMER "Miller, Ohno, Dietrich"
INDEX 01 00:00:00
 
♦ CD5 (01:14:17)
Треклист:

01. Saturday Night Interplay [05:10]
02. Saturday Night Interplay [04:40]
03. Saturday Night Interplay [07:27]
04. Saturday Night Interplay [05:31]
05. Saturday Night Interplay [06:20]
06. Saturday Night Interplay [04:52]
07. Saturday Night Interplay [05:34]
08. Saturday Night Interplay [05:20]
09. Saturday Night Interplay [05:00]
10. Saturday Night Interplay [06:31]
11. Saturday Night Interplay [07:57]
12. Saturday Night Interplay [09:51]
 
Лог создания рипа
Exact Audio Copy V0.99 prebeta 5 from 4. May 2009
EAC extraction logfile from 2. April 2013, 10:26
Various / no99 - No Music Festival 1999 (CD5 - C)
Used drive : PLEXTOR DVDR PX-L890SA Adapter: 6 ID: 0
Read mode : Secure
Utilize accurate stream : Yes
Defeat audio cache : Yes
Make use of C2 pointers : No
Read offset correction : 6
Overread into Lead-In and Lead-Out : No
Fill up missing offset samples with silence : Yes
Delete leading and trailing silent blocks : No
Null samples used in CRC calculations : Yes
Used interface : Native Win32 interface for Win NT & 2000
Gap handling : Appended to previous track
Used output format : User Defined Encoder
Selected bitrate : 1024 kBit/s
Quality : High
Add ID3 tag : No
Command line compressor : C:\Program Files (x86)\FLAC\flac.exe
Additional command line options : -8 -V -T "ARTIST=%a" -T "TITLE=%t" -T "ALBUM=%g" -T "DATE=%y" -T "TRACKNUMBER=%n" -T "GENRE=%m" -T "COMMENT=EAC FLAC -8" %s
TOC of the extracted CD
Track | Start | Length | Start sector | End sector
---------------------------------------------------------
1 | 0:00.00 | 5:10.37 | 0 | 23286
2 | 5:10.37 | 4:40.01 | 23287 | 44287
3 | 9:50.38 | 7:27.20 | 44288 | 77832
4 | 17:17.58 | 5:31.24 | 77833 | 102681
5 | 22:49.07 | 6:20.44 | 102682 | 131225
6 | 29:09.51 | 4:52.40 | 131226 | 153165
7 | 34:02.16 | 5:34.06 | 153166 | 178221
8 | 39:36.22 | 5:20.38 | 178222 | 202259
9 | 44:56.60 | 5:00.35 | 202260 | 224794
10 | 49:57.20 | 6:31.36 | 224795 | 254155
11 | 56:28.56 | 7:57.19 | 254156 | 289949
12 | 64:26.00 | 9:51.40 | 289950 | 334314
Track 1
Filename C:\EAC\no99 - No Music Festival 1999 [5CD] {Entartete Kunst}\CD5 - C\01 - Vandermark, Van Hove - Saturday Night Interplay.wav
Pre-gap length 0:00:02.00
Peak level 97.9 %
Track quality 99.9 %
Test CRC 2C5832D9
Copy CRC 2C5832D9
Track not present in AccurateRip database
Copy OK
Track 2
Filename C:\EAC\no99 - No Music Festival 1999 [5CD] {Entartete Kunst}\CD5 - C\02 - G. Curnoe, Bristow, Ohno - Saturday Night Interplay.wav
Peak level 98.8 %
Track quality 100.0 %
Test CRC 9E5F02EA
Copy CRC 9E5F02EA
Track not present in AccurateRip database
Copy OK
Track 3
Filename C:\EAC\no99 - No Music Festival 1999 [5CD] {Entartete Kunst}\CD5 - C\03 - O'Rourke, Knurl, (Miller) - Saturday Night Interplay.wav
Peak level 95.9 %
Track quality 99.9 %
Test CRC 376D8AF7
Copy CRC 376D8AF7
Track not present in AccurateRip database
Copy OK
Track 4
Filename C:\EAC\no99 - No Music Festival 1999 [5CD] {Entartete Kunst}\CD5 - C\04 - Licht, Borges, McIntyre, Boyle - Saturday Night Interplay.wav
Peak level 97.7 %
Track quality 100.0 %
Test CRC E840207A
Copy CRC E840207A
Track not present in AccurateRip database
Copy OK
Track 5
Filename C:\EAC\no99 - No Music Festival 1999 [5CD] {Entartete Kunst}\CD5 - C\05 - Vandermark, Sauter, Dietrich - Saturday Night Interplay.wav
Peak level 97.9 %
Track quality 100.0 %
Test CRC DA560B1F
Copy CRC DA560B1F
Track not present in AccurateRip database
Copy OK
Track 6
Filename C:\EAC\no99 - No Music Festival 1999 [5CD] {Entartete Kunst}\CD5 - C\06 - Van Hove, A. Pratten - Saturday Night Interplay.wav
Peak level 97.7 %
Track quality 99.9 %
Test CRC BEC134DB
Copy CRC BEC134DB
Track not present in AccurateRip database
Copy OK
Track 7
Filename C:\EAC\no99 - No Music Festival 1999 [5CD] {Entartete Kunst}\CD5 - C\07 - Licht, Vandermark, O'Rourke - Saturday Night Interplay.wav
Peak level 94.0 %
Track quality 99.9 %
Test CRC D1D2A70D
Copy CRC D1D2A70D
Track not present in AccurateRip database
Copy OK
Track 8
Filename C:\EAC\no99 - No Music Festival 1999 [5CD] {Entartete Kunst}\CD5 - C\08 - McIntyre, Clement, Licht, Snow - Saturday Night Interplay.wav
Peak level 97.5 %
Track quality 100.0 %
Test CRC 55797A64
Copy CRC 55797A64
Track not present in AccurateRip database
Copy OK
Track 9
Filename C:\EAC\no99 - No Music Festival 1999 [5CD] {Entartete Kunst}\CD5 - C\09 - Turner, Sauter, Glasgow, Knurl - Saturday Night Interplay.wav
Peak level 89.2 %
Track quality 100.0 %
Test CRC 153CE9DF
Copy CRC 153CE9DF
Track not present in AccurateRip database
Copy OK
Track 10
Filename C:\EAC\no99 - No Music Festival 1999 [5CD] {Entartete Kunst}\CD5 - C\10 - Exley, Bellchamber, G. Curnoe, O. Curnoe - Saturday Night Interplay.wav
Peak level 93.6 %
Track quality 99.9 %
Test CRC D9B319A8
Copy CRC D9B319A8
Track not present in AccurateRip database
Copy OK
Track 11
Filename C:\EAC\no99 - No Music Festival 1999 [5CD] {Entartete Kunst}\CD5 - C\11 - Borges, Licht, (Miller) - Saturday Night Interplay.wav
Peak level 98.4 %
Track quality 100.0 %
Test CRC 953AD2C6
Copy CRC 953AD2C6
Track not present in AccurateRip database
Copy OK
Track 12
Filename C:\EAC\no99 - No Music Festival 1999 [5CD] {Entartete Kunst}\CD5 - C\12 - A. Pratten, W. Pratten, Clement - Saturday Night Interplay.wav
Peak level 99.0 %
Track quality 100.0 %
Test CRC 2EDA8FE5
Copy CRC 2EDA8FE5
Track not present in AccurateRip database
Copy OK
None of the tracks are present in the AccurateRip database
No errors occurred
End of status report
 
Содержание индексной карты (.CUE)
REM GENRE "Avant-Garde Jazz"
REM DATE 2000
REM DISCID BB11690C
REM COMMENT "ExactAudioCopy v0.99pb5"
PERFORMER "Various"
TITLE "no99 - No Music Festival 1999 (CD5 - C)"
FILE "01 - Vandermark, Van Hove - Saturday Night Interplay.wav" WAVE
TRACK 01 AUDIO
TITLE "Saturday Night Interplay"
PERFORMER "Vandermark, Van Hove"
INDEX 01 00:00:00
FILE "02 - G. Curnoe, Bristow, Ohno - Saturday Night Interplay.wav" WAVE
TRACK 02 AUDIO
TITLE "Saturday Night Interplay"
PERFORMER "G. Curnoe, Bristow, Ohno"
INDEX 01 00:00:00
FILE "03 - O'Rourke, Knurl, (Miller) - Saturday Night Interplay.wav" WAVE
TRACK 03 AUDIO
TITLE "Saturday Night Interplay"
PERFORMER "O'Rourke, Knurl, (Miller)"
INDEX 01 00:00:00
FILE "04 - Licht, Borges, McIntyre, Boyle - Saturday Night Interplay.wav" WAVE
TRACK 04 AUDIO
TITLE "Saturday Night Interplay"
PERFORMER "Licht, Borges, McIntyre, Boyle"
INDEX 01 00:00:00
FILE "05 - Vandermark, Sauter, Dietrich - Saturday Night Interplay.wav" WAVE
TRACK 05 AUDIO
TITLE "Saturday Night Interplay"
PERFORMER "Vandermark, Sauter, Dietrich"
INDEX 01 00:00:00
FILE "06 - Van Hove, A. Pratten - Saturday Night Interplay.wav" WAVE
TRACK 06 AUDIO
TITLE "Saturday Night Interplay"
PERFORMER "Van Hove, A. Pratten"
INDEX 01 00:00:00
FILE "07 - Licht, Vandermark, O'Rourke - Saturday Night Interplay.wav" WAVE
TRACK 07 AUDIO
TITLE "Saturday Night Interplay"
PERFORMER "Licht, Vandermark, O'Rourke"
INDEX 01 00:00:00
FILE "08 - McIntyre, Clement, Licht, Snow - Saturday Night Interplay.wav" WAVE
TRACK 08 AUDIO
TITLE "Saturday Night Interplay"
PERFORMER "McIntyre, Clement, Licht, Snow"
INDEX 01 00:00:00
FILE "09 - Turner, Sauter, Glasgow, Knurl - Saturday Night Interplay.wav" WAVE
TRACK 09 AUDIO
TITLE "Saturday Night Interplay"
PERFORMER "Turner, Sauter, Glasgow, Knurl"
INDEX 01 00:00:00
FILE "10 - Exley, Bellchamber, G. Curnoe, O. Curnoe - Saturday Night Interplay.wav" WAVE
TRACK 10 AUDIO
TITLE "Saturday Night Interplay"
PERFORMER "Exley, Bellchamber, G. Curnoe, O. Curnoe"
INDEX 01 00:00:00
FILE "11 - Borges, Licht, (Miller) - Saturday Night Interplay.wav" WAVE
TRACK 11 AUDIO
TITLE "Saturday Night Interplay"
PERFORMER "Borges, Licht, (Miller)"
INDEX 01 00:00:00
FILE "12 - A. Pratten, W. Pratten, Clement - Saturday Night Interplay.wav" WAVE
TRACK 12 AUDIO
TITLE "Saturday Night Interplay"
PERFORMER "A. Pratten, W. Pratten, Clement"
INDEX 01 00:00:00
 
Состав
The live recording of the 1999 No Music Festival, no99, consists of five CDs, an oversize 16-page booklet with photos of the performers, notes by festival director Ben Portis and by several of the participants, and a kazoo, so you can play along or even start your own noise band, all packaged in a sturdy, attractively-designed box.
The festival was structured in two parts over three days and evenings: the concert performances by each of the groups (on discs 1, 2, and 3), and "interplay"—what might be called jam sessions—consisting of improvisations by members of the various groups, many of whom had never met one another before the festival, in a variety of permutations and combinations (on discs 4 & 5). The five concert numbers by the Spasm Band included some of their "greatest hits":
"I Have Nothing to Say," "It's Not My Fault," and a new version of their 1967 debut recording, "No Canada."
Personnel of The Nihilist Spasm Band:
John Boyle - kazoo, drums, thumb piano
John Clement - guitar, drums
Bill Exley - vocals, kazoo, cooking pot
Murray Favro - guitar, drums
Hugh McIntyre - bass
Art Pratten - Pratt-A-Various
Disc 1 (concert performances)
1. Ken Vandermark/Fred Van Hove
2. Jon Borges
3 & 4. Unclean Wiener
5. Chenaux/Newman
6. Christian Kiefer
Disc 2 (concert performances)
1 & 2. Borbetomagus
3. Solmania
4. Jay Bellchamber/Jim O'Rourke
Disc 3 (concert performances)
1. Alan Licht/Michael Snow
2–6. Nihilist Spasm Band
Disc 4 (Interplay, 12 tracks)
Disc 5 (Interplay, 12 tracks)
Any questions -> support@pro-jazz.com. По всем вопросам пишите -> support@pro-jazz.com
11:05
195
Нет комментариев. Ваш будет первым!