Вы используете незарегистрированную версию компонента "Вкладки"!

Поиск

(Avant-Garde Jazz, Free Improvisation) Thomas Chapin Trio - Third Force - 1991, FLAC (tracks+.cue), lossless

Треклист:
•Thomas Chapin Trio - Third Force•
Жанр: Avant-Garde Jazz, Free Improvisation
Год издания: 1991
Издатель (лейбл): Enemy
Аудиокодек: FLAC (*.flac)
Тип рипа: tracks+.cue
Битрейт аудио: lossless
Продолжительность: 01:01:17
Источник (релизер): Рип с диска.
Наличие сканов в содержимом раздачи: нет
Треклист:
01. Ahab's Leg [10:14]
02. Poet O Central Park [04:49]
03. Iddly [07:39]
04. Tale of the Sands [08:38]
05. Third force [07:57]
06. Then [01:27]
07. Resolution 678 [08:07]
08. Now [00:42]
09. Boy on a Dolphin/Stairs [10:26]
10. Eternal Eye (intro) [01:13]
Personnel:
Thomas Chapin (alto saxophone, flute); Mario Pavone (bass); Steve Johns (drums).
 
Лог создания рипа
Exact Audio Copy V1.0 beta 3 from 29. August 2011
Отчёт EAC об извлечении, выполненном 20. июня 2012, 22:05
Thomas Chapin Trio / Third Force
Дисковод: Optiarc DVD RW AD-5200A Adapter: 0 ID: 1
Режим чтения : Достоверность
Использование точного потока : Да
Отключение кэша аудио : Да
Использование указателей C2 : Нет
Коррекция смещения при чтении : 48
Способность читать области Lead-in и Lead-out : Нет
Заполнение пропущенных сэмплов тишиной : Да
Удаление блоков с тишиной в начале и конце : Нет
При вычислениях CRC использовались нулевые сэмплы : Да
Интерфейс : Встроенный Win32-интерфейс для Win NT/2000
Обработка зазоров : Добавлено к предыдущему треку
Выходной формат : Пользовательский кодировщик
Выбранный битрейт : 128 kBit/s
Качество : Высокий
Добавление ID3-тега : Нет
Утилита сжатия : C:\Program Files\Exact Audio Copy\Flac\flac.exe
Дополнительные параметры : -V -8 -T "Genre=%genre%" -T "Artist=%artist%" -T "Title=%title%" -T "Album=%albumtitle%" -T "Date=%year%" -T "Tracknumber=%tracknr%" -T "Comment=%comment%" %source%
TOC извлечённого CD
Трек | Старт | Длительность | Начальный сектор | Конечный сектор
---------------------------------------------------------------------
1 | 0:00.00 | 10:14.65 | 0 | 46114
2 | 10:14.65 | 4:49.05 | 46115 | 67794
3 | 15:03.70 | 7:39.25 | 67795 | 102244
4 | 22:43.20 | 8:38.05 | 102245 | 141099
5 | 31:21.25 | 7:57.70 | 141100 | 176944
6 | 39:19.20 | 1:27.27 | 176945 | 183496
7 | 40:46.47 | 8:07.38 | 183497 | 220059
8 | 48:54.10 | 0:42.55 | 220060 | 223264
9 | 49:36.65 | 10:26.57 | 223265 | 270271
10 | 60:03.47 | 1:13.65 | 270272 | 275811
Трек 1
Имя файла F:\1991.Thomas Chapin Trio - Third Force\01. Ahab's Leg.wav
Длина предзазора 0:00:02.00
Пиковый уровень 89.9 %
Скорость извлечения 2.7 X
Качество трека 99.9 %
CRC теста C5370D62
CRC копии C5370D62
Точность не определена (достоверность 2) [0162004F], AccurateRip вернул [F99CFB18] (AR v2)
Копирование... OK
Трек 2
Имя файла F:\1991.Thomas Chapin Trio - Third Force\02. Poet O Central Park.wav
Пиковый уровень 100.0 %
Скорость извлечения 3.1 X
Качество трека 100.0 %
CRC теста 200F5EA9
CRC копии 200F5EA9
Точность не определена (достоверность 2) [840E3DB8], AccurateRip вернул [C3AD3AF5] (AR v2)
Копирование... OK
Трек 3
Имя файла F:\1991.Thomas Chapin Trio - Third Force\03. Iddly.wav
Пиковый уровень 100.0 %
Скорость извлечения 3.5 X
Качество трека 100.0 %
CRC теста 42310565
CRC копии 42310565
Точность не определена (достоверность 2) [89580FD6], AccurateRip вернул [42775BBC] (AR v2)
Копирование... OK
Трек 4
Имя файла F:\1991.Thomas Chapin Trio - Third Force\04. Tale of the Sands.wav
Пиковый уровень 100.0 %
Скорость извлечения 3.9 X
Качество трека 100.0 %
CRC теста 9DBBD81D
CRC копии 9DBBD81D
Точность не определена (достоверность 2) [929957D2], AccurateRip вернул [0F94F968] (AR v2)
Копирование... OK
Трек 5
Имя файла F:\1991.Thomas Chapin Trio - Third Force\05. Third force.wav
Пиковый уровень 99.9 %
Скорость извлечения 4.2 X
Качество трека 100.0 %
CRC теста 0D799359
CRC копии 0D799359
Точность не определена (достоверность 2) [FD0B5255], AccurateRip вернул [C5495636] (AR v2)
Копирование... OK
Трек 6
Имя файла F:\1991.Thomas Chapin Trio - Third Force\06. Then.wav
Пиковый уровень 39.5 %
Скорость извлечения 3.3 X
Качество трека 100.0 %
CRC теста 3447ED07
CRC копии 3447ED07
Точность не определена (достоверность 2) [1941A39C], AccurateRip вернул [7069A38A] (AR v2)
Копирование... OK
Трек 7
Имя файла F:\1991.Thomas Chapin Trio - Third Force\07. Resolution 678.wav
Пиковый уровень 97.7 %
Скорость извлечения 4.6 X
Качество трека 100.0 %
CRC теста 45EDB938
CRC копии 45EDB938
Точность не определена (достоверность 2) [91D75F8A], AccurateRip вернул [78AD55B8] (AR v2)
Копирование... OK
Трек 8
Имя файла F:\1991.Thomas Chapin Trio - Third Force\08. Now.wav
Пиковый уровень 29.6 %
Скорость извлечения 2.6 X
Качество трека 100.0 %
CRC теста E493DAB4
CRC копии E493DAB4
Точность не определена (достоверность 2) [6AA5F255], AccurateRip вернул [6740B215] (AR v2)
Копирование... OK
Трек 9
Имя файла F:\1991.Thomas Chapin Trio - Third Force\09. Boy on a Dolphin,Stairs.wav
Пиковый уровень 100.0 %
Скорость извлечения 5.0 X
Качество трека 100.0 %
CRC теста 45F31484
CRC копии 45F31484
Точность не определена (достоверность 2) [D103A964], AccurateRip вернул [91D96772] (AR v2)
Копирование... OK
Трек 10
Имя файла F:\1991.Thomas Chapin Trio - Third Force\10. Eternal Eye (intro).wav
Пиковый уровень 28.5 %
Скорость извлечения 3.7 X
Качество трека 100.0 %
CRC теста 75C4577E
CRC копии 75C4577E
Точность не определена (достоверность 2) [0393B4B9], AccurateRip вернул [549000EA] (AR v2)
Копирование... OK
Ни один трек не прошёл проверки на точность
В вашей базе может быть иной вариант штамповки диска
Ошибок не произошло
Конец отчёта
==== Контрольная сумма отчёта E0683C4393296A37609918CBDB48E5A67A3C147A5E2AC177E695E83006C7036D ====
 
Содержание индексной карты (.CUE)
REM GENRE Jazz
REM DATE 1991
REM DISCID 9A0E5D0A
REM COMMENT "ExactAudioCopy v1.0b3"
PERFORMER "Thomas Chapin Trio"
TITLE "Third Force"
FILE "01. Ahab's Leg.wav" WAVE
TRACK 01 AUDIO
TITLE "Ahab's Leg"
PERFORMER "Thomas Chapin Trio"
INDEX 01 00:00:00
FILE "02. Poet O Central Park.wav" WAVE
TRACK 02 AUDIO
TITLE "Poet O Central Park"
PERFORMER "Thomas Chapin Trio"
INDEX 01 00:00:00
FILE "03. Iddly.wav" WAVE
TRACK 03 AUDIO
TITLE "Iddly"
PERFORMER "Thomas Chapin Trio"
INDEX 01 00:00:00
FILE "04. Tale of the Sands.wav" WAVE
TRACK 04 AUDIO
TITLE "Tale of the Sands"
PERFORMER "Thomas Chapin Trio"
INDEX 01 00:00:00
FILE "05. Third force.wav" WAVE
TRACK 05 AUDIO
TITLE "Third force"
PERFORMER "Thomas Chapin Trio"
INDEX 01 00:00:00
FILE "06. Then.wav" WAVE
TRACK 06 AUDIO
TITLE "Then"
PERFORMER "Thomas Chapin Trio"
INDEX 01 00:00:00
FILE "07. Resolution 678.wav" WAVE
TRACK 07 AUDIO
TITLE "Resolution 678"
PERFORMER "Thomas Chapin Trio"
INDEX 01 00:00:00
FILE "08. Now.wav" WAVE
TRACK 08 AUDIO
TITLE "Now"
PERFORMER "Thomas Chapin Trio"
INDEX 01 00:00:00
FILE "09. Boy on a Dolphin,Stairs.wav" WAVE
TRACK 09 AUDIO
TITLE "Boy on a Dolphin/Stairs"
PERFORMER "Thomas Chapin Trio"
INDEX 01 00:00:00
FILE "10. Eternal Eye (intro).wav" WAVE
TRACK 10 AUDIO
TITLE "Eternal Eye (intro)"
PERFORMER "Thomas Chapin Trio"
INDEX 01 00:00:00
 
CUETools
[CUETools log; Date: 20.06.2012 22:12:41; Version: 2.1.4]
[CTDB TOCID: BqSPmvuwogmbTMEgdCVBmpeBTgw-] disk not present in database.
[AccurateRip ID: 001a0c62-00ca5faa-9a0e5d0a] found.
Track [ CRC | V2 ] Status
01 [6f9193b4|0162004f] (0+0/2) No match
02 [b7814cfa|840e3db8] (0+0/2) No match
03 [667f46c5|89580fd6] (0+0/2) No match
04 [3255c705|929957d2] (0+0/2) No match
05 [06a857da|fd0b5255] (0+0/2) No match
06 [c4a607ff|1941a39c] (0+0/2) No match
07 [5de99256|91d75f8a] (0+0/2) No match
08 [05795322|6aa5f255] (0+0/2) No match
09 [5ccbe9a0|d103a964] (0+0/2) No match
10 [402be04d|0393b4b9] (0+0/2) No match
Track Peak [ CRC32 ] [W/O NULL] [ LOG ]
-- 100,0 [2C9D7AA6] [FD85CD52]
01 89,9 [C5370D62] [DB6676D7] CRC32
02 100,0 [200F5EA9] [A94ADAF2] CRC32
03 100,0 [42310565] [86CF7427] CRC32
04 100,0 [9DBBD81D] [66D20CA0] CRC32
05 99,9 [0D799359] [2431F9C2] CRC32
06 39,5 [3447ED07] [70FDF198] CRC32
07 97,7 [45EDB938] [37641E76] CRC32
08 29,6 [E493DAB4] [89ADD02C] CRC32
09 100,0 [45F31484] [C849C4AD] CRC32
10 28,5 [75C4577E] [6E9E94FE] CRC32
Any questions -> support@pro-jazz.com. По всем вопросам пишите -> support@pro-jazz.com
01:53
151
Нет комментариев. Ваш будет первым!