Вы используете незарегистрированную версию компонента "Вкладки"!

Поиск

(Avant-Garde Jazz, Free Improvisation) Thomas Chapin - I've Got Your Number - 1993, APE (tracks+.cue), lossless

Треклист:
•Thomas Chapin - I've Got Your Number•
Жанр: Avant-Garde Jazz, Free Improvisation
Страна-производитель диска: USA
Год издания: 1993
Издатель (лейбл): Arabesque Jazz
Номер по каталогу: AJ0110
Аудиокодек: APE (*.ape)
Тип рипа: tracks+.cue
Битрейт аудио: lossless
Продолжительность: 00:56:34
Источник (релизер): Рип с диска.
Наличие сканов в содержимом раздачи: да
Треклист:
01. I've Got Your Number [05:47]
02. Drinkin' [07:41]
03. Time Waits [07:33]
04. Moon Ray [07:46]
05. Don't Look Now [06:06]
06. The Present [06:58]
07. The Walking Wounded [08:46]
08. Rhino! [05:54]
Personnel:
Thomas Chapin - as, fl
Ronnie Mathews - p
Ray Drummond - b
Steve Johns - dr
Louis Bauzo - congas
 
Лог создания рипа
Exact Audio Copy V1.0 beta 3 from 29. August 2011
Отчёт EAC об извлечении, выполненном 21. мая 2012, 14:25
Thomas Chapin / I've Got Your Number
Дисковод: Optiarc DVD RW AD-5200A Adapter: 0 ID: 1
Режим чтения : Достоверность
Использование точного потока : Да
Отключение кэша аудио : Да
Использование указателей C2 : Нет
Коррекция смещения при чтении : 48
Способность читать области Lead-in и Lead-out : Нет
Заполнение пропущенных сэмплов тишиной : Да
Удаление блоков с тишиной в начале и конце : Нет
При вычислениях CRC использовались нулевые сэмплы : Да
Интерфейс : Встроенный Win32-интерфейс для Win NT/2000
Обработка зазоров : Добавлено к предыдущему треку
Выходной формат : Пользовательский кодировщик
Выбранный битрейт : 128 kBit/s
Качество : Высокий
Добавление ID3-тега : Нет
Утилита сжатия : F:\Program Files\Monkey's Audio\wapet.exe
Дополнительные параметры : %dest% -t "Genre=%genre%" -t "Artist=%artist%" -t "Title=%title%" -t "Album=%albumtitle%" -t "Year=%year%" -t "Track=%tracknr%" -t "Comment=%comment%" mac.exe %source% %dest% -c3000
TOC извлечённого CD
Трек | Старт | Длительность | Начальный сектор | Конечный сектор
---------------------------------------------------------------------
1 | 0:00.00 | 5:47.35 | 0 | 26059
2 | 5:47.35 | 7:41.02 | 26060 | 60636
3 | 13:28.37 | 7:33.65 | 60637 | 94676
4 | 21:02.27 | 7:46.53 | 94677 | 129679
5 | 28:49.05 | 6:06.62 | 129680 | 157191
6 | 34:55.67 | 6:58.03 | 157192 | 188544
7 | 41:53.70 | 8:46.50 | 188545 | 228044
8 | 50:40.45 | 5:54.25 | 228045 | 254619
Трек 1
Имя файла F:\1993.Thomas Chapin - I've Got Your Number\01. I've Got Your Number.wav
Длина предзазора 0:00:02.00
Пиковый уровень 100.0 %
Скорость извлечения 2.6 X
Качество трека 100.0 %
CRC теста C1201E20
CRC копии C1201E20
Точное извлечение (достоверность 2) [2F31E5AA] (AR v1)
Копирование... OK
Трек 2
Имя файла F:\1993.Thomas Chapin - I've Got Your Number\02. Drinkin'.wav
Длина предзазора 0:00:02.58
Пиковый уровень 100.0 %
Скорость извлечения 3.1 X
Качество трека 100.0 %
CRC теста 35FF2B26
CRC копии 35FF2B26
Точное извлечение (достоверность 2) [4799A762] (AR v1)
Копирование... OK
Трек 3
Имя файла F:\1993.Thomas Chapin - I've Got Your Number\03. Time Waits.wav
Длина предзазора 0:00:01.60
Пиковый уровень 61.7 %
Скорость извлечения 3.4 X
Качество трека 100.0 %
CRC теста 8A5DE41B
CRC копии 8A5DE41B
Точное извлечение (достоверность 2) [ECD8615B] (AR v1)
Копирование... OK
Трек 4
Имя файла F:\1993.Thomas Chapin - I've Got Your Number\04. Moon Ray.wav
Длина предзазора 0:00:02.50
Пиковый уровень 100.0 %
Скорость извлечения 3.8 X
Качество трека 100.0 %
CRC теста 697DD6BD
CRC копии 697DD6BD
Точное извлечение (достоверность 2) [3CAD3499] (AR v1)
Копирование... OK
Трек 5
Имя файла F:\1993.Thomas Chapin - I've Got Your Number\05. Don't Look Now.wav
Длина предзазора 0:00:02.58
Пиковый уровень 100.0 %
Скорость извлечения 3.7 X
Качество трека 99.9 %
CRC теста F23DE9AF
CRC копии F23DE9AF
Точное извлечение (достоверность 2) [F91BD3E6] (AR v1)
Копирование... OK
Трек 6
Имя файла F:\1993.Thomas Chapin - I've Got Your Number\06. The Present.wav
Длина предзазора 0:00:02.57
Пиковый уровень 80.7 %
Скорость извлечения 4.3 X
Качество трека 100.0 %
CRC теста D3C08A16
CRC копии D3C08A16
Точное извлечение (достоверность 2) [D94295A7] (AR v1)
Копирование... OK
Трек 7
Имя файла F:\1993.Thomas Chapin - I've Got Your Number\07. The Walking Wounded.wav
Длина предзазора 0:00:02.55
Пиковый уровень 97.2 %
Скорость извлечения 4.7 X
Качество трека 100.0 %
CRC теста 07A6D74D
CRC копии 07A6D74D
Точное извлечение (достоверность 2) [F33B87FE] (AR v1)
Копирование... OK
Трек 8
Имя файла F:\1993.Thomas Chapin - I've Got Your Number\08. Rhino!.wav
Длина предзазора 0:00:03.55
Пиковый уровень 100.0 %
Скорость извлечения 4.7 X
Качество трека 100.0 %
CRC теста 0A3E33AD
CRC копии 0A3E33AD
Точное извлечение (достоверность 2) [AF3D874C] (AR v1)
Копирование... OK
Все треки извлечены точно
Ошибок не произошло
Конец отчёта
==== Контрольная сумма отчёта 92600327CD09AD5DADF5B8E19670E40AAFA783253366E786C2498496BEED25EF ====
 
Содержание индексной карты (.CUE)
REM GENRE Jazz
REM DATE 1993
REM DISCID 5C0D4208
REM COMMENT "ExactAudioCopy v1.0b3"
PERFORMER "Thomas Chapin"
TITLE "I've Got Your Number"
FILE "01. I've Got Your Number.wav" WAVE
TRACK 01 AUDIO
TITLE "I've Got Your Number"
PERFORMER "Thomas Chapin"
INDEX 01 00:00:00
TRACK 02 AUDIO
TITLE "Drinkin'"
PERFORMER "Thomas Chapin"
INDEX 00 05:44:52
FILE "02. Drinkin'.wav" WAVE
INDEX 01 00:00:00
TRACK 03 AUDIO
TITLE "Time Waits"
PERFORMER "Thomas Chapin"
INDEX 00 07:39:17
FILE "03. Time Waits.wav" WAVE
INDEX 01 00:00:00
TRACK 04 AUDIO
TITLE "Moon Ray"
PERFORMER "Thomas Chapin"
INDEX 00 07:31:15
FILE "04. Moon Ray.wav" WAVE
INDEX 01 00:00:00
TRACK 05 AUDIO
TITLE "Don't Look Now"
PERFORMER "Thomas Chapin"
INDEX 00 07:43:70
FILE "05. Don't Look Now.wav" WAVE
INDEX 01 00:00:00
TRACK 06 AUDIO
TITLE "The Present"
PERFORMER "Thomas Chapin"
INDEX 00 06:04:05
FILE "06. The Present.wav" WAVE
INDEX 01 00:00:00
TRACK 07 AUDIO
TITLE "The Walking Wounded"
PERFORMER "Thomas Chapin"
INDEX 00 06:55:23
FILE "07. The Walking Wounded.wav" WAVE
INDEX 01 00:00:00
TRACK 08 AUDIO
TITLE "Rhino!"
PERFORMER "Thomas Chapin"
INDEX 00 08:42:70
FILE "08. Rhino!.wav" WAVE
INDEX 01 00:00:00
Any questions -> support@pro-jazz.com. По всем вопросам пишите -> support@pro-jazz.com
00:59
126
Нет комментариев. Ваш будет первым!