Вы используете незарегистрированную версию компонента "Вкладки"!

Поиск

(Avant-Garde Jazz, Free Improvisation) The Leaders - Mudfoot - 1986, APE (tracks+.cue), lossless

(Avant-Garde Jazz, Free Improvisation) The Leaders - Mudfoot - 1986, APE (tracks+.cue), lossless
Треклист:
•The Leaders - Mudfoot•
Жанр: Avant-Garde Jazz, Free Improvisation
Страна-производитель диска: Germany
Год издания: 1986
Издатель (лейбл): Bellaphon
Номер по каталогу: BKH 52001 CD
Аудиокодек: APE (*.ape)
Тип рипа: tracks+.cue
Битрейт аудио: lossless
Продолжительность: 00:41:52
Источник (релизер): Рип с диска.
Наличие сканов в содержимом раздачи: да
Треклист:
01. Miss Nancy [13:18]
02. Elaborations [04:24]
03. Midnite Train [03:43]
04. Freedom Swing Song [04:45]
05. Song of Her [05:41]
06. Mudfoot [06:52]
07. Cupid [03:07]
Personnel:
Arthur Blythe - as
Lester Bowie - tp
Chico freeman - ts, Bcl, voc
Kirk Lightsey - p
Cecil McBee - b
Don Moye - dr
 
Лог создания рипа
Exact Audio Copy V1.0 beta 3 from 29. August 2011
Отчёт EAC об извлечении, выполненном 9. августа 2012, 9:38
The Leaders / Mudfoot
Дисковод: Optiarc DVD RW AD-5200A Adapter: 0 ID: 0
Режим чтения : Достоверность
Использование точного потока : Да
Отключение кэша аудио : Да
Использование указателей C2 : Нет
Коррекция смещения при чтении : 48
Способность читать области Lead-in и Lead-out : Нет
Заполнение пропущенных сэмплов тишиной : Да
Удаление блоков с тишиной в начале и конце : Нет
При вычислениях CRC использовались нулевые сэмплы : Да
Интерфейс : Встроенный Win32-интерфейс для Win NT/2000
Обработка зазоров : Добавлено к предыдущему треку
Выходной формат : Пользовательский кодировщик
Выбранный битрейт : 128 kBit/s
Качество : Высокий
Добавление ID3-тега : Нет
Утилита сжатия : F:\Program Files\Monkey's Audio\wapet.exe
Дополнительные параметры : %dest% -t "Genre=%genre%" -t "Artist=%artist%" -t "Title=%title%" -t "Album=%albumtitle%" -t "Year=%year%" -t "Track=%tracknr%" -t "Comment=%comment%" mac.exe %source% %dest% -c3000
TOC извлечённого CD
Трек | Старт | Длительность | Начальный сектор | Конечный сектор
---------------------------------------------------------------------
1 | 0:00.00 | 13:18.00 | 0 | 59849
2 | 13:18.00 | 4:24.00 | 59850 | 79649
3 | 17:42.00 | 3:43.70 | 79650 | 96444
4 | 21:25.70 | 4:45.05 | 96445 | 117824
5 | 26:11.00 | 5:41.03 | 117825 | 143402
6 | 31:52.03 | 6:52.72 | 143403 | 174374
7 | 38:45.00 | 3:07.63 | 174375 | 188462
Трек 1
Имя файла F:\1986.The Leaders - Mudfoot\01. Miss Nancy.wav
Длина предзазора 0:00:02.00
Пиковый уровень 76.0 %
Скорость извлечения 2.7 X
Качество трека 100.0 %
CRC теста 1CD57627
CRC копии 1CD57627
Трек не обнаружен в базе AccurateRip
Копирование... OK
Трек 2
Имя файла F:\1986.The Leaders - Mudfoot\02. Elaborations.wav
Длина предзазора 0:00:03.50
Пиковый уровень 44.2 %
Скорость извлечения 2.9 X
Качество трека 100.0 %
CRC теста B9562D7F
CRC копии B9562D7F
Трек не обнаружен в базе AccurateRip
Копирование... OK
Трек 3
Имя файла F:\1986.The Leaders - Mudfoot\03. Midnite Train.wav
Длина предзазора 0:00:02.00
Пиковый уровень 47.7 %
Скорость извлечения 3.1 X
Качество трека 100.0 %
CRC теста 254D4A7C
CRC копии 254D4A7C
Трек не обнаружен в базе AccurateRip
Копирование... OK
Трек 4
Имя файла F:\1986.The Leaders - Mudfoot\04. Freedom Swing Song.wav
Длина предзазора 0:00:02.62
Пиковый уровень 54.6 %
Скорость извлечения 3.3 X
Качество трека 100.0 %
CRC теста 645AF3FA
CRC копии 645AF3FA
Трек не обнаружен в базе AccurateRip
Копирование... OK
Трек 5
Имя файла F:\1986.The Leaders - Mudfoot\05. Song of Her.wav
Длина предзазора 0:00:00.32
Пиковый уровень 44.7 %
Скорость извлечения 3.6 X
Качество трека 100.0 %
CRC теста 88337665
CRC копии 88337665
Трек не обнаружен в базе AccurateRip
Копирование... OK
Трек 6
Имя файла F:\1986.The Leaders - Mudfoot\06. Mudfoot.wav
Длина предзазора 0:00:02.48
Пиковый уровень 60.8 %
Скорость извлечения 3.5 X
Качество трека 99.9 %
CRC теста 50BB6EFE
CRC копии 50BB6EFE
Трек не обнаружен в базе AccurateRip
Копирование... OK
Трек 7
Имя файла F:\1986.The Leaders - Mudfoot\07. Cupid.wav
Длина предзазора 0:00:02.55
Пиковый уровень 60.1 %
Скорость извлечения 3.6 X
Качество трека 100.0 %
CRC теста 0D6FA7BA
CRC копии 0D6FA7BA
Трек не обнаружен в базе AccurateRip
Копирование... OK
Ни одного трека нет в базе AccurateRip
Ошибок не произошло
Конец отчёта
==== Контрольная сумма отчёта F16B50F97722BA68EB1E18CBFA106B4B9774E46C6296B8CF27C30C7027F97F6E ====
 
Содержание индексной карты (.CUE)
REM GENRE Jazz
REM DATE 1986
REM DISCID 5409D007
REM COMMENT "ExactAudioCopy v1.0b3"
PERFORMER "The Leaders"
TITLE "Mudfoot"
FILE "01. Miss Nancy.wav" WAVE
TRACK 01 AUDIO
TITLE "Miss Nancy"
PERFORMER "The Leaders"
INDEX 01 00:00:00
TRACK 02 AUDIO
TITLE "Elaborations"
PERFORMER "The Leaders"
INDEX 00 13:14:25
FILE "02. Elaborations.wav" WAVE
INDEX 01 00:00:00
TRACK 03 AUDIO
TITLE "Midnite Train"
PERFORMER "The Leaders"
INDEX 00 04:22:00
FILE "03. Midnite Train.wav" WAVE
INDEX 01 00:00:00
TRACK 04 AUDIO
TITLE "Freedom Swing Song"
PERFORMER "The Leaders"
INDEX 00 03:41:08
FILE "04. Freedom Swing Song.wav" WAVE
INDEX 01 00:00:00
TRACK 05 AUDIO
TITLE "Song of Her"
PERFORMER "The Leaders"
INDEX 00 04:44:48
FILE "05. Song of Her.wav" WAVE
INDEX 01 00:00:00
TRACK 06 AUDIO
TITLE "Mudfoot"
PERFORMER "The Leaders"
INDEX 00 05:38:30
FILE "06. Mudfoot.wav" WAVE
INDEX 01 00:00:00
TRACK 07 AUDIO
TITLE "Cupid"
PERFORMER "The Leaders"
INDEX 00 06:50:17
FILE "07. Cupid.wav" WAVE
INDEX 01 00:00:00
Any questions -> support@pro-jazz.com. По всем вопросам пишите -> support@pro-jazz.com
02:56
181
Нет комментариев. Ваш будет первым!