Вы используете незарегистрированную версию компонента "Вкладки"!

Поиск

(Avant-Garde Jazz, Free Improvisation) Sam Rivers - Crystals {1974} - 2002, APE (tracks+.cue), lossless

(Avant-Garde Jazz, Free Improvisation) Sam Rivers - Crystals {1974} - 2002, APE (tracks+.cue), lossless
Треклист:
♦ Sam Rivers - Crystals {1974} ♦
Жанр: Avant-Garde Jazz, Free Improvisation
Страна-производитель диска: USA
Год издания: 2002
Издатель (лейбл): ABC / Verve
Номер по каталогу: ASD-9286
Аудиокодек: APE (*.ape)
Тип рипа: tracks+.cue
Битрейт аудио: lossless
Продолжительность: 00:40:34
Источник (релизер): Рип с диска.
Наличие сканов в содержимом раздачи: да
Треклист:
01. Exultation [08:26]
02. Tranquility [08:59]
03. Postlude [02:31]
04. Bursts [06:52]
05. Orb [09:37]
06. Earth Song [04:07]
 
Лог создания рипа
Exact Audio Copy V1.0 beta 3 from 29. August 2011
EAC extraction logfile from 7. November 2013, 15:22
Sam Rivers / Crystals
Used drive : Optiarc DVD RW AD-5200A Adapter: 0 ID: 0
Read mode : Secure
Utilize accurate stream : Yes
Defeat audio cache : Yes
Make use of C2 pointers : No
Read offset correction : 48
Overread into Lead-In and Lead-Out : No
Fill up missing offset samples with silence : Yes
Delete leading and trailing silent blocks : No
Null samples used in CRC calculations : Yes
Used interface : Native Win32 interface for Win NT & 2000
Gap handling : Appended to previous track
Used output format : User Defined Encoder
Selected bitrate : 128 kBit/s
Quality : High
Add ID3 tag : No
Command line compressor : F:\Program Files\Monkey's Audio\wapet.exe
Additional command line options : %dest% -t "Genre=%genre%" -t "Artist=%artist%" -t "Title=%title%" -t "Album=%albumtitle%" -t "Year=%year%" -t "Track=%tracknr%" -t "Comment=%comment%" mac.exe %source% %dest% -c3000
TOC of the extracted CD
Track | Start | Length | Start sector | End sector
---------------------------------------------------------
1 | 0:00.00 | 8:26.18 | 0 | 37967
2 | 8:26.18 | 8:59.17 | 37968 | 78409
3 | 17:25.35 | 2:31.44 | 78410 | 89778
4 | 19:57.04 | 6:52.57 | 89779 | 120735
5 | 26:49.61 | 9:37.00 | 120736 | 164010
6 | 36:26.61 | 4:07.73 | 164011 | 182608
Track 1
Filename F:\2002.Sam Rivers - Crystals\01. Exultation.wav
Pre-gap length 0:00:02.00
Peak level 95.1 %
Extraction speed 2.5 X
Track quality 100.0 %
Test CRC 55623A82
Copy CRC 55623A82
Accurately ripped (confidence 5) [5EA784D5] (AR v1)
Copy OK
Track 2
Filename F:\2002.Sam Rivers - Crystals\02. Tranquility.wav
Pre-gap length 0:00:01.24
Peak level 91.8 %
Extraction speed 2.9 X
Track quality 100.0 %
Test CRC 4822DBE9
Copy CRC 4822DBE9
Accurately ripped (confidence 5) [0983D0C5] (AR v1)
Copy OK
Track 3
Filename F:\2002.Sam Rivers - Crystals\03. Postlude.wav
Pre-gap length 0:00:01.20
Peak level 88.6 %
Extraction speed 2.8 X
Track quality 100.0 %
Test CRC 643E9BD6
Copy CRC 643E9BD6
Accurately ripped (confidence 5) [F0065E06] (AR v1)
Copy OK
Track 4
Filename F:\2002.Sam Rivers - Crystals\04. Bursts.wav
Pre-gap length 0:00:01.14
Peak level 97.7 %
Extraction speed 3.4 X
Track quality 100.0 %
Test CRC AD07B306
Copy CRC AD07B306
Accurately ripped (confidence 5) [E3AB144B] (AR v1)
Copy OK
Track 5
Filename F:\2002.Sam Rivers - Crystals\05. Orb.wav
Peak level 98.9 %
Extraction speed 3.5 X
Track quality 99.9 %
Test CRC B008D60C
Copy CRC B008D60C
Accurately ripped (confidence 5) [3417EA8C] (AR v1)
Copy OK
Track 6
Filename F:\2002.Sam Rivers - Crystals\06. Earth Song.wav
Pre-gap length 0:00:01.71
Peak level 99.9 %
Extraction speed 3.2 X
Track quality 99.9 %
Test CRC A305B459
Copy CRC A305B459
Accurately ripped (confidence 5) [0195D520] (AR v1)
Copy OK
All tracks accurately ripped
No errors occurred
End of status report
==== Log checksum CAFDE956DE7AF604800BDF7260961BC179817716D9B8AD2943ABEA828E0A9D30 ====
 
Содержание индексной карты (.CUE)
REM GENRE Jazz
REM DATE 1974
REM DISCID 4B098206
REM COMMENT "ExactAudioCopy v1.0b3"
CATALOG 0731458976028
PERFORMER "Sam Rivers"
TITLE "Crystals"
FILE "01. Exultation.wav" WAVE
TRACK 01 AUDIO
TITLE "Exultation"
PERFORMER "Sam Rivers"
ISRC USGR10200380
INDEX 01 00:00:00
TRACK 02 AUDIO
TITLE "Tranquility"
PERFORMER "Sam Rivers"
ISRC USGR10200381
INDEX 00 08:24:69
FILE "02. Tranquility.wav" WAVE
INDEX 01 00:00:00
TRACK 03 AUDIO
TITLE "Postlude"
PERFORMER "Sam Rivers"
ISRC USGR10200382
INDEX 00 08:57:72
FILE "03. Postlude.wav" WAVE
INDEX 01 00:00:00
TRACK 04 AUDIO
TITLE "Bursts"
PERFORMER "Sam Rivers"
ISRC USGR10200383
INDEX 00 02:30:30
FILE "04. Bursts.wav" WAVE
INDEX 01 00:00:00
FILE "05. Orb.wav" WAVE
TRACK 05 AUDIO
TITLE "Orb"
PERFORMER "Sam Rivers"
ISRC USGR10200384
INDEX 01 00:00:00
TRACK 06 AUDIO
TITLE "Earth Song"
PERFORMER "Sam Rivers"
ISRC USGR10200385
INDEX 00 09:35:04
FILE "06. Earth Song.wav" WAVE
INDEX 01 00:00:00
 
Состав
Bass – Gregory Maker
Composed By, Liner Notes, Flute, Tenor Saxophone – Sam Rivers
Drums, Percussion – Harold Smith, Warren Smith
Soprano Saxophone, Baritone Saxophone, Piccolo Flute, Flute – Fred Kelly
Soprano Saxophone, Tenor Saxophone, Flute, Piano – Roland Alexander
Tenor Saxophone, Alto Saxophone, Soprano Saxophone, Flute – Joe Ferguson
Tenor Saxophone, Flute, Clarinet, Oboe, Basset Horn, Bassoon – Paul Jeffrey
Trombone – Charles Majeed Greenlee, Charles Stephens
Trombone, Tuba – Joseph Daley
Trumpet – Richard Williams, Sinclair Acey, Ted Daniel
Any questions -> support@pro-jazz.com. По всем вопросам пишите -> support@pro-jazz.com
20:12
138
Нет комментариев. Ваш будет первым!