Вы используете незарегистрированную версию компонента "Вкладки"!

Поиск

(Avant-Garde Jazz, Free Improvisation) Roscoe Mitchell and the Sound Ensemble - Snurdy McGurdy and her Dancin' Shoes {1980} - 2003, APE (image+.cue), lossless

Треклист:
•Roscoe Mitchell and the Sound Ensemble - Snurdy McGurdy and her Dancin' Shoes {1980}•
Жанр: Avant-Garde Jazz, Free Improvisation
Страна-производитель диска: USA
Год издания: 2003
Издатель (лейбл): Nessa
Аудиокодек: APE (*.ape)
Тип рипа: image+.cue
Битрейт аудио: lossless
Продолжительность: 00:40:33
Источник (релизер): barin99
Наличие сканов в содержимом раздачи: да
Треклист:
01. Sing Song [07:49]
02. CYP [07:12]
03. Stomp and the Far East Blues [05:13]
04. March (Composition 40 Q) [04:42]
05. Round [10:12]
06. Snurdy McGurdy and Her Dancin' Shoes [05:22]

Personnel:
Roscoe Mitchell — Clarinet, Flute, Flute (Wood), Sax (Alto), Sax (Bass), Sax (Soprano), Sax (Tenor)
Hugh Ragin — Flugelhorn, Piccolo Trumpet, Trumpet
A. Spencer Barefield — Guitar, Piano
Jaribu Shahid — Bass, Cello, Percussion
Tani Tabbal — Drums, Percussion
 
Лог создания рипа
Exact Audio Copy V1.0 beta 1 from 15. November 2010
EAC extraction logfile from 13. March 2012, 17:05
Roscoe Mitchell / Snurdy McGurdy and her Dancin' Shoes
Used drive : TSSTcorpDVD+-RW TS-L532B Adapter: 1 ID: 0
Read mode : Secure
Utilize accurate stream : Yes
Defeat audio cache : Yes
Make use of C2 pointers : No
Read offset correction : 704
Overread into Lead-In and Lead-Out : No
Fill up missing offset samples with silence : Yes
Delete leading and trailing silent blocks : No
Null samples used in CRC calculations : Yes
Used interface : Native Win32 interface for Win NT & 2000
Used output format : Internal WAV Routines
Sample format : 44.100 Hz; 16 Bit; Stereo
TOC of the extracted CD
Track | Start | Length | Start sector | End sector
---------------------------------------------------------
1 | 0:00.00 | 7:52.72 | 0 | 35471
2 | 7:52.72 | 7:16.05 | 35472 | 68176
3 | 15:09.02 | 5:17.33 | 68177 | 91984
4 | 20:26.35 | 4:45.70 | 91985 | 113429
5 | 25:12.30 | 10:16.40 | 113430 | 159669
6 | 35:28.70 | 5:22.10 | 159670 | 183829
Range status and errors
Selected range
Filename C:\Documents and Settings\VB\My Documents\BARIN99\Roscoe Mitchell - Snurdy McGurdy and her Dancin' Shoes\Roscoe Mitchell - Snurdy McGurdy and her Dancin' Shoes.wav
Peak level 98.3 %
Extraction speed 0.3 X
Range quality 100.0 %
Copy CRC F786E6B8
Copy OK
No errors occurred
AccurateRip summary
Track 1 cannot be verified as accurate (confidence 1) [BC2CA4D2], AccurateRip returned [87EDDD8F]
Track 2 accurately ripped (confidence 1) [7029073C]
Track 3 accurately ripped (confidence 1) [E9425D7F]
Track 4 accurately ripped (confidence 1) [06C8D7A4]
Track 5 accurately ripped (confidence 1) [C3B94E9E]
Track 6 accurately ripped (confidence 1) [9D4B26EA]
5 track(s) accurately ripped
1 track(s) could not be verified as accurate
Some tracks could not be verified as accurate
End of status report
 
Содержание индексной карты (.CUE)
REM GENRE Jazz
REM DATE 1980
REM DISCID 3A099306
REM COMMENT "ExactAudioCopy v1.0b1"
PERFORMER "Roscoe Mitchell"
TITLE "Snurdy McGurdy and her Dancin' Shoes"
FILE "Roscoe Mitchell - Snurdy McGurdy and her Dancin' Shoes.wav" WAVE
TRACK 01 AUDIO
TITLE "Sing Song"
PERFORMER "Roscoe Mitchell"
INDEX 01 00:00:00
TRACK 02 AUDIO
TITLE "CYP"
PERFORMER "Roscoe Mitchell"
INDEX 00 07:49:25
INDEX 01 07:52:72
TRACK 03 AUDIO
TITLE "Stomp and the Far East Blues"
PERFORMER "Roscoe Mitchell"
INDEX 00 15:05:30
INDEX 01 15:09:02
TRACK 04 AUDIO
TITLE "March (Composition 40 Q)"
PERFORMER "Roscoe Mitchell"
INDEX 00 20:22:65
INDEX 01 20:26:35
TRACK 05 AUDIO
TITLE "Round"
PERFORMER "Roscoe Mitchell"
INDEX 00 25:08:62
INDEX 01 25:12:30
TRACK 06 AUDIO
TITLE "Snurdy McGurdy and Her Dancin' Shoes"
PERFORMER "Roscoe Mitchell"
INDEX 00 35:25:27
INDEX 01 35:28:70
Any questions -> support@pro-jazz.com. По всем вопросам пишите -> support@pro-jazz.com
23:55
125
Нет комментариев. Ваш будет первым!