Вы используете незарегистрированную версию компонента "Вкладки"!

Поиск

(Avant-Garde Jazz, Free Improvisation) Rob Brown Ensemble - Crown Trunk Root Funk - 2008, FLAC (tracks+.cue), lossless

(Avant-Garde Jazz, Free Improvisation) Rob Brown Ensemble - Crown Trunk Root Funk - 2008, FLAC (tracks+.cue), lossless
Треклист:
•Rob Brown Ensemble - Crown Trunk Root Funk•
Жанр: Avant-Garde Jazz, Free Improvisation
Год издания: 2008
Издатель (лейбл): AumFidelity
Аудиокодек: FLAC (*.flac)
Тип рипа: tracks+.cue
Битрейт аудио: lossless
Продолжительность: 00:59:24
Источник (релизер): mishka1981
Наличие сканов в содержимом раздачи: да
Треклист:
01. Rocking Horse
02. Clearly Speaking
03. Sonic Ecosystem
04. Ghost Dog
05. Exuberance
06. Lifeboat
07. Worlds Spinning
Personnel:
Rob Brown (as)
Craig Taborn (p)
William Parker (b)
Gerald Cleaver (dr)
 
Лог создания рипа
Exact Audio Copy V1.0 beta 1 from 15. November 2010
EAC extraction logfile from 5. April 2012, 13:28
Rob Brown Ensemble / Crown Trunk Root Funk
Used drive : Optiarc DVD RW AD-7710H Adapter: 1 ID: 0
Read mode : Secure
Utilize accurate stream : Yes
Defeat audio cache : Yes
Make use of C2 pointers : No
Read offset correction : 48
Overread into Lead-In and Lead-Out : No
Fill up missing offset samples with silence : Yes
Delete leading and trailing silent blocks : No
Null samples used in CRC calculations : Yes
Used interface : Native Win32 interface for Win NT & 2000
Gap handling : Appended to previous track
Used output format : User Defined Encoder
Selected bitrate : 896 kBit/s
Quality : High
Add ID3 tag : No
Command line compressor : C:\Program Files\Exact Audio Copy\FLAC\FLAC.EXE
Additional command line options : -8 -V -T "ARTIST=%a" -T "TITLE=%t" -T "ALBUM=%g" -T "DATE=%y" -T "TRACKNUMBER=%n" -T "GENRE=%m" -T "COMMENT=%e" %j--picture="%i"%j %s -o %d
TOC of the extracted CD
Track | Start | Length | Start sector | End sector
---------------------------------------------------------
1 | 0:00.00 | 10:57.23 | 0 | 49297
2 | 10:57.23 | 6:56.29 | 49298 | 80526
3 | 17:53.52 | 11:17.50 | 80527 | 131351
4 | 29:11.27 | 7:33.28 | 131352 | 165354
5 | 36:44.55 | 6:18.05 | 165355 | 193709
6 | 43:02.60 | 6:29.55 | 193710 | 222939
7 | 49:32.40 | 9:51.16 | 222940 | 267280
Track 1
Filename C:\MY RIPS\01 - Rocking Horse.wav
Pre-gap length 0:00:02.00
Peak level 98.8 %
Extraction speed 3.3 X
Track quality 100.0 %
Test CRC 1DE781F6
Copy CRC 1DE781F6
Accurately ripped (confidence 6) [F5547B13]
Copy OK
Track 2
Filename C:\MY RIPS\02 - Clearly Speaking.wav
Pre-gap length 0:00:02.00
Peak level 98.8 %
Extraction speed 3.4 X
Track quality 99.9 %
Test CRC CB2C154C
Copy CRC CB2C154C
Accurately ripped (confidence 7) [2354E885]
Copy OK
Track 3
Filename C:\MY RIPS\03 - Sonic Ecosystem.wav
Pre-gap length 0:00:02.00
Peak level 98.8 %
Extraction speed 4.5 X
Track quality 100.0 %
Test CRC BAE75864
Copy CRC BAE75864
Accurately ripped (confidence 6) [1633BB8C]
Copy OK
Track 4
Filename C:\MY RIPS\04 - Ghost Dog.wav
Pre-gap length 0:00:02.00
Peak level 98.8 %
Extraction speed 4.9 X
Track quality 100.0 %
Test CRC A1640F32
Copy CRC A1640F32
Accurately ripped (confidence 7) [3501B417]
Copy OK
Track 5
Filename C:\MY RIPS\05 - Exuberance.wav
Pre-gap length 0:00:02.00
Peak level 98.8 %
Extraction speed 5.1 X
Track quality 100.0 %
Test CRC 25B9EFE9
Copy CRC 25B9EFE9
Accurately ripped (confidence 6) [8D7FD52E]
Copy OK
Track 6
Filename C:\MY RIPS\06 - Lifeboat.wav
Pre-gap length 0:00:02.00
Peak level 98.8 %
Extraction speed 5.4 X
Track quality 100.0 %
Test CRC 1E88CF00
Copy CRC 1E88CF00
Accurately ripped (confidence 6) [466389E2]
Copy OK
Track 7
Filename C:\MY RIPS\07 - Worlds Spinning.wav
Pre-gap length 0:00:02.00
Peak level 98.8 %
Extraction speed 5.9 X
Track quality 100.0 %
Test CRC D3A6239C
Copy CRC D3A6239C
Accurately ripped (confidence 7) [3E47AB15]
Copy OK
All tracks accurately ripped
No errors occurred
End of status report
==== Log checksum 3BE9A0D9AA0265C09BA2A42D2CC88154F3BB91A437DFCB9B8431C9E8195AB051 ====
 
Содержание индексной карты (.CUE)
REM DISCID 660DEB07
REM COMMENT "ExactAudioCopy v1.0b1"
PERFORMER "Rob Brown Ensemble"
TITLE "Crown Trunk Root Funk"
FILE "01 - Rocking Horse.wav" WAVE
TRACK 01 AUDIO
TITLE "Rocking Horse"
PERFORMER "Rob Brown Ensemble"
INDEX 01 00:00:00
TRACK 02 AUDIO
TITLE "Clearly Speaking"
PERFORMER "Rob Brown Ensemble"
INDEX 00 10:55:23
FILE "02 - Clearly Speaking.wav" WAVE
INDEX 01 00:00:00
TRACK 03 AUDIO
TITLE "Sonic Ecosystem"
PERFORMER "Rob Brown Ensemble"
INDEX 00 06:54:29
FILE "03 - Sonic Ecosystem.wav" WAVE
INDEX 01 00:00:00
TRACK 04 AUDIO
TITLE "Ghost Dog"
PERFORMER "Rob Brown Ensemble"
INDEX 00 11:15:50
FILE "04 - Ghost Dog.wav" WAVE
INDEX 01 00:00:00
TRACK 05 AUDIO
TITLE "Exuberance"
PERFORMER "Rob Brown Ensemble"
INDEX 00 07:31:28
FILE "05 - Exuberance.wav" WAVE
INDEX 01 00:00:00
TRACK 06 AUDIO
TITLE "Lifeboat"
PERFORMER "Rob Brown Ensemble"
INDEX 00 06:16:05
FILE "06 - Lifeboat.wav" WAVE
INDEX 01 00:00:00
TRACK 07 AUDIO
TITLE "Worlds Spinning"
PERFORMER "Rob Brown Ensemble"
INDEX 00 06:27:55
FILE "07 - Worlds Spinning.wav" WAVE
INDEX 01 00:00:00
Any questions -> support@pro-jazz.com. По всем вопросам пишите -> support@pro-jazz.com
23:38
171
Нет комментариев. Ваш будет первым!