Вы используете незарегистрированную версию компонента "Вкладки"!

Поиск

(Avant-Garde Jazz, Free Improvisation, Piano Jazz) Burton Greene - Live At Grasland - 2004, FLAC (tracks+.cue), lossless

(Avant-Garde Jazz, Free Improvisation, Piano Jazz) Burton Greene - Live At Grasland - 2004, FLAC (tracks+.cue), lossless
Треклист:
♦ Burton Greene - Live At Grasland ♦
Жанр: Avant-Garde Jazz, Free Improvisation, Piano Jazz
Страна-производитель диска: USA
Год издания: 2004
Издатель (лейбл): Drimala Records
Номер по каталогу: DR 04-347-01
Аудиокодек: FLAC (*.flac)
Тип рипа: tracks+.cue
Битрейт аудио: lossless
Продолжительность: 01:00:54
Источник (релизер): Рип с диска.
Наличие сканов в содержимом раздачи: да
Треклист:
01. Calistrophy [06:23]
02. In the Footsteps of the Bratslav [06:59]
03. Sylosophy (Digitalville) [07:04]
04. 12,733 Shopping Malls [04:59]
05. Florida Summer Odyssey [11:30]
06. A Cozy Winter Veggy Soup [06:42]
07. Gnat Dance [07:35]
08. Angels [09:40]
 
Лог создания рипа
Exact Audio Copy V1.0 beta 3 from 29. August 2011
EAC extraction logfile from 28. March 2013, 15:41
Burton Greene / Live At Grasland
Used drive : Optiarc DVD RW AD-5200A Adapter: 0 ID: 0
Read mode : Secure
Utilize accurate stream : Yes
Defeat audio cache : Yes
Make use of C2 pointers : No
Read offset correction : 48
Overread into Lead-In and Lead-Out : No
Fill up missing offset samples with silence : Yes
Delete leading and trailing silent blocks : No
Null samples used in CRC calculations : Yes
Used interface : Native Win32 interface for Win NT & 2000
Gap handling : Appended to previous track
Used output format : User Defined Encoder
Selected bitrate : 128 kBit/s
Quality : High
Add ID3 tag : No
Command line compressor : C:\Program Files\Exact Audio Copy\Flac\flac.exe
Additional command line options : -V -8 -T "Genre=%genre%" -T "Artist=%artist%" -T "Title=%title%" -T "Album=%albumtitle%" -T "Date=%year%" -T "Tracknumber=%tracknr%" -T "Comment=%comment%" %source%
TOC of the extracted CD
Track | Start | Length | Start sector | End sector
---------------------------------------------------------
1 | 0:00.00 | 6:23.15 | 0 | 28739
2 | 6:23.15 | 6:59.45 | 28740 | 60209
3 | 13:22.60 | 7:04.00 | 60210 | 92009
4 | 20:26.60 | 4:59.15 | 92010 | 114449
5 | 25:26.00 | 11:30.30 | 114450 | 166229
6 | 36:56.30 | 6:42.30 | 166230 | 196409
7 | 43:38.60 | 7:35.15 | 196410 | 230549
8 | 51:14.00 | 9:40.30 | 230550 | 274079
Track 1
Filename F:\2004.Burton Greene - Live At Grasland\01. Calistrophy.wav
Pre-gap length 0:00:02.00
Peak level 97.7 %
Extraction speed 2.4 X
Track quality 100.0 %
Test CRC 0EC68967
Copy CRC 0EC68967
Track not present in AccurateRip database
Copy OK
Track 2
Filename F:\2004.Burton Greene - Live At Grasland\02. In the Footsteps of the Bratslav.wav
Pre-gap length 0:00:02.00
Peak level 97.7 %
Extraction speed 2.7 X
Track quality 99.9 %
Test CRC FCAF01D5
Copy CRC FCAF01D5
Track not present in AccurateRip database
Copy OK
Track 3
Filename F:\2004.Burton Greene - Live At Grasland\03. Sylosophy (Digitalville).wav
Pre-gap length 0:00:02.00
Peak level 97.7 %
Extraction speed 3.2 X
Track quality 100.0 %
Test CRC 9B524723
Copy CRC 9B524723
Track not present in AccurateRip database
Copy OK
Track 4
Filename F:\2004.Burton Greene - Live At Grasland\04. 12,733 Shopping Malls.wav
Pre-gap length 0:00:02.00
Peak level 97.7 %
Extraction speed 3.4 X
Track quality 100.0 %
Test CRC E6BC9386
Copy CRC E6BC9386
Track not present in AccurateRip database
Copy OK
Track 5
Filename F:\2004.Burton Greene - Live At Grasland\05. Florida Summer Odyssey.wav
Pre-gap length 0:00:02.00
Peak level 97.7 %
Extraction speed 3.8 X
Track quality 100.0 %
Test CRC F091DF45
Copy CRC F091DF45
Track not present in AccurateRip database
Copy OK
Track 6
Filename F:\2004.Burton Greene - Live At Grasland\06. A Cozy Winter Veggy Soup.wav
Pre-gap length 0:00:02.00
Peak level 97.7 %
Extraction speed 3.4 X
Track quality 99.9 %
Test CRC 00B06CC4
Copy CRC 00B06CC4
Track not present in AccurateRip database
Copy OK
Track 7
Filename F:\2004.Burton Greene - Live At Grasland\07. Gnat Dance.wav
Pre-gap length 0:00:02.00
Peak level 97.7 %
Extraction speed 3.7 X
Track quality 100.0 %
Test CRC 33EAB23C
Copy CRC 33EAB23C
Track not present in AccurateRip database
Copy OK
Track 8
Filename F:\2004.Burton Greene - Live At Grasland\08. Angels.wav
Pre-gap length 0:00:02.00
Peak level 97.7 %
Extraction speed 3.8 X
Track quality 100.0 %
Test CRC B06A9583
Copy CRC B06A9583
Track not present in AccurateRip database
Copy OK
None of the tracks are present in the AccurateRip database
No errors occurred
End of status report
==== Log checksum 3ED84621D564B002A6173C63CD2C75DE7CD64115DDB4E8740868C26C1F9ECEE0 ====
 
Содержание индексной карты (.CUE)
REM GENRE Jazz
REM DATE 2004
REM DISCID 620E4608
REM COMMENT "ExactAudioCopy v1.0b3"
CATALOG 0697857040121
PERFORMER "Burton Greene"
TITLE "Live At Grasland"
FILE "01. Calistrophy.wav" WAVE
TRACK 01 AUDIO
TITLE "Calistrophy"
PERFORMER "Burton Greene"
ISRC USA6S0400001
FLAGS PRE
INDEX 01 00:00:00
TRACK 02 AUDIO
TITLE "In the Footsteps of the Bratslav"
PERFORMER "Burton Greene"
ISRC USA6S0400002
FLAGS PRE
INDEX 00 06:21:15
FILE "02. In the Footsteps of the Bratslav.wav" WAVE
INDEX 01 00:00:00
TRACK 03 AUDIO
TITLE "Sylosophy (Digitalville)"
PERFORMER "Burton Greene"
ISRC USA6S0400003
FLAGS PRE
INDEX 00 06:57:45
FILE "03. Sylosophy (Digitalville).wav" WAVE
INDEX 01 00:00:00
TRACK 04 AUDIO
TITLE "12,733 Shopping Malls"
PERFORMER "Burton Greene"
ISRC USA6S0400004
FLAGS PRE
INDEX 00 07:02:00
FILE "04. 12,733 Shopping Malls.wav" WAVE
INDEX 01 00:00:00
TRACK 05 AUDIO
TITLE "Florida Summer Odyssey"
PERFORMER "Burton Greene"
ISRC USA6S0400005
FLAGS PRE
INDEX 00 04:57:15
FILE "05. Florida Summer Odyssey.wav" WAVE
INDEX 01 00:00:00
TRACK 06 AUDIO
TITLE "A Cozy Winter Veggy Soup"
PERFORMER "Burton Greene"
ISRC USA6S0400006
FLAGS PRE
INDEX 00 11:28:30
FILE "06. A Cozy Winter Veggy Soup.wav" WAVE
INDEX 01 00:00:00
TRACK 07 AUDIO
TITLE "Gnat Dance"
PERFORMER "Burton Greene"
ISRC USA6S0400007
FLAGS PRE
INDEX 00 06:40:30
FILE "07. Gnat Dance.wav" WAVE
INDEX 01 00:00:00
TRACK 08 AUDIO
TITLE "Angels"
PERFORMER "Burton Greene"
ISRC USA6S0400008
FLAGS PRE
INDEX 00 07:33:15
FILE "08. Angels.wav" WAVE
INDEX 01 00:00:00
Any questions -> support@pro-jazz.com. По всем вопросам пишите -> support@pro-jazz.com
10:25
211
Нет комментариев. Ваш будет первым!