Поиск

(Avant-Garde Jazz, Free Improvisation, Percussion Music) [CD] Marcos Fernandes & Mike Pride - A Mountain Is A Mammal - 2006, FLAC (tracks+.cue), lossless

Треклист:
Marcos Fernandes & Mike Pride / A Mountain Is A Mammal
Жанр: Avant-Garde Jazz, Free Improvisation, Percussion Music
Носитель: CD
Страна-производитель диска: US
Год издания: 2006
Издатель (лейбл): Accretions Records
Номер по каталогу: ALP 042
Страна исполнителя (группы): US
Аудиокодек: FLAC (*.flac)
Тип рипа: tracks+.cue
Битрейт аудио: lossless
Продолжительность: 40:17
Источник (релизер): свой фирменный диск
Наличие сканов в содержимом раздачи:
Треклист:
1. Welcome Whom Find It Becoming 6:11
2. A Little More Dangerous 27:08
3. Is Anything More Than Everything 6:56
 
Лог создания рипа
Exact Audio Copy V1.0 beta 3 from 29. August 2011
EAC extraction logfile from 16. September 2014, 22:28
Marcos Fernandes & Mike Pride / A Mountain Is A Mammal
Used drive : PIONEER DVD-RW DVR-115D Adapter: 0 ID: 0
Read mode : Secure
Utilize accurate stream : Yes
Defeat audio cache : Yes
Make use of C2 pointers : No
Read offset correction : 48
Overread into Lead-In and Lead-Out : No
Fill up missing offset samples with silence : Yes
Delete leading and trailing silent blocks : No
Null samples used in CRC calculations : Yes
Used interface : Installed external ASPI interface
Gap handling : Appended to previous track
Used output format : User Defined Encoder
Selected bitrate : 768 kBit/s
Quality : High
Add ID3 tag : No
Command line compressor : C:\Program Files\Exact Audio Copy\Flac\flac.exe
Additional command line options : -6 -V -T "ARTIST=%artist%" -T "TITLE=%title%" -T "ALBUM=%albumtitle%" -T "DATE=%year%" -T "TRACKNUMBER=%tracknr%" -T "GENRE=%genre%" -T "COMMENT=%comment%" -T "BAND=%albuminterpret%" -T "COMPOSER=%composer%" %haslyrics%--tag-from-file=LYRICS="%lyricsfile%"%haslyrics% -T "DISCNUMBER=%cdnumber%" -T "TOTALDISCS=%totalcds%" -T "TOTALTRACKS=%numtracks%" %hascover%--picture="%coverfile%"%hascover% %source% -o %dest%
TOC of the extracted CD
Track | Start | Length | Start sector | End sector
---------------------------------------------------------
1 | 0:00.00 | 6:11.57 | 0 | 27881
2 | 6:11.57 | 27:08.74 | 27882 | 150055
3 | 33:20.56 | 6:56.00 | 150056 | 181255
Track 1
Filename D:\zzz\01 - Welcome Whom Find It Becoming.wav
Pre-gap length 0:00:02.00
Peak level 100.0 %
Extraction speed 5.1 X
Track quality 100.0 %
Test CRC 6507AA4D
Copy CRC 6507AA4D
Track not present in AccurateRip database
Copy OK
Track 2
Filename D:\zzz\02 - A Little More Dangerous.wav
Peak level 100.0 %
Extraction speed 6.9 X
Track quality 100.0 %
Test CRC 5B637CCF
Copy CRC 5B637CCF
Track not present in AccurateRip database
Copy OK
Track 3
Filename D:\zzz\03 - Is Anything More Than Everything.wav
Peak level 100.0 %
Extraction speed 7.2 X
Track quality 99.9 %
Test CRC A695AA83
Copy CRC A695AA83
Track not present in AccurateRip database
Copy OK
None of the tracks are present in the AccurateRip database
No errors occurred
End of status report
==== Log checksum 07E071672A8EAB52D00263071E2053E0B7A084E0C50ED561EB937C13B0FC0CBA ====
 
Содержание индексной карты (.CUE)
REM GENRE "Percussion Music"
REM DATE 2006
REM DISCID 13097003
REM COMMENT "ExactAudioCopy v1.0b3"
PERFORMER "Marcos Fernandes & Mike Pride"
TITLE "A Mountain Is A Mammal"
FILE "01 - Welcome Whom Find It Becoming.wav" WAVE
TRACK 01 AUDIO
TITLE "Welcome Whom Find It Becoming"
PERFORMER "Marcos Fernandes & Mike Pride"
INDEX 01 00:00:00
FILE "02 - A Little More Dangerous.wav" WAVE
TRACK 02 AUDIO
TITLE "A Little More Dangerous"
PERFORMER "Marcos Fernandes & Mike Pride"
INDEX 01 00:00:00
FILE "03 - Is Anything More Than Everything.wav" WAVE
TRACK 03 AUDIO
TITLE "Is Anything More Than Everything"
PERFORMER "Marcos Fernandes & Mike Pride"
INDEX 01 00:00:00
 
Лог проверки качества
d:\>d:\aucdtect -d/-m0 d:\zzz\*.wav
auCDtect: CD records authenticity detector, version 0.8.2
Copyright (c) 2004 Oleg Berngardt. All rights reserved.
Copyright (c) 2004 Alexander Djourik. All rights reserved.
------------------------------------------------------------
Processing file: [01. Welcome Whom Find It Becoming.wav]
------------------------------------------------------------
This track looks like CDDA with probability 100%
------------------------------------------------------------
Processing file: [02. A Little More Dangerous.wav]
------------------------------------------------------------
This track looks like CDDA with probability 100%
------------------------------------------------------------
Processing file: [03. Is Anything More Than Everything.wav]
------------------------------------------------------------
This track looks like CDDA with probability 100%
------------------------------------------------------------
Final Conclusion:
------------------------------------------------------------
These tracks looks like CDDA with probability 100%
Доп. информация:
 
Album Info & Touching Extremes Review
Recorded at Funhole Studios, Brooklyn, NY on November 5, 2005
Cover and CD by MF
Back cover by MP
Published by Accretions & Funhole Music, BMI
You and I are not snobs. We can never be born enough. We are human beings, for whom birth is a supremely welcome mystery, the mystery of growing, the mystery which happens only and whenever we are faithful to ourselves. You and I wear the dangerous looseness of doom and find it becoming. Life, for eternal us, is now and now is much too busy being a little more than everything to seem anything, catastrophic included. - E.E. Cummings
Fernandes and Pride are two renowned percussionists who have been active in the free music scene for many years, playing with a virtual who's who of the most inquisitive minds of the "no pigeonhole" areas which include, among the others, George Lewis, Haco, Jack Wright, Anthony Braxton, Eugene Chadbourne, Nels Cline, Otomo Yoshihide (and counting). The splendidly titled "A mountain is a mammal" presents percussive dialogues that accept no stylish compromise, focusing on textural analysis and event-related spontaneousness. Austere if fantasy-gifted, this music offers a lot, ranging through various aspects of an anti-pattern approach that bristles with effervescent energy and denotes scrupulous attention for what the partner has to say. Metal, wood and skin are all parts of a context in which every component weights the same and no influence is noticed. There seems to be a struggle to achieve a controlled structural freedom, a semi-fractal kind of expression that borders on the ritualistic but also sounds rationally well behaved. Muscular playing is also featured, especially in the aptly named "A little more dangerous", while "More than everything" is a great moment of serenity, rippled by electronic processing and rebellious clattering, ending the record in a "dadaist" light, Pride's vocals halfway through a goose and throwing up his cookies. This stuff is made of many hits and few misses, moving with natural compulsion but always remaining extremely manageable as far as the degree of acceptability is concerned; Fernandes and Pride prove themselves to be two competent, keen-eared players with the capability of enhancing a conversational flow. The whole makes for 40 minutes of sober yet often exciting improvisation.
 
Состав
Marcos Fernandes: percussion, phonography
Mike Pride: drums, percussion, glockenspiel, electronics, voice
По всем вопросам пишите личное сообщение пользователю M0p94ok.
06:22
175
Нет комментариев. Ваш будет первым!