Вы используете незарегистрированную версию компонента "Вкладки"!

Поиск

(Avant-Garde Jazz / Free Improvisation / Norway) Frode Gjerstad Trio (Jon Rune Strom, Paal Nilssen-Love) - Mir - 2011, FLAC (tracks+.cue), lossless

(Avant-Garde Jazz / Free Improvisation / Norway) Frode Gjerstad Trio (Jon Rune Strom, Paal Nilssen-Love) - Mir - 2011, FLAC (tracks+.cue), lossless
Треклист:
Frode Gjerstad Trio - Mir
Жанр: Avant-Garde Jazz / Free Improvisation
Страна-производитель диска: Norway
Год издания: 2011
Издатель (лейбл): Circulasione Totale
Номер по каталогу: CT14
Аудиокодек: FLAC (*.flac)
Тип рипа: tracks+.cue
Битрейт аудио: lossless
Продолжительность: 00:57:09
Источник (релизер): what.cd / спасибо 6060842
Наличие сканов в содержимом раздачи: нет
Треклист:
1. Mir 1 (22:23)
2. Mir 2 (10:19)
3. Mir 3 (22:12)
4. Mir 4 (02:14)
Доп. информация:
Musicians:
Jon Rune Strøm - acoustic bass
Frode Gjerstad - alto saxophone, clarinet
Paal Nilssen-Love - percussion
Recorded live at Mir, Oslo, September 28th 2010
Frode Gjerstad Official Site
Paal Nilssen-Love Official Site
Paal Nilssen-Love from Wikipedia, the free encyclopedia
 
... photo ...

 
Лог создания рипа
X Lossless Decoder version 20130127 (142.3)
XLD extraction logfile from 2013-02-04 15:58:11 +0400
Frode Gjerstad Trio / MIR
Used drive : HL-DT-ST DVDRW GX30N (revision RP09)
Media type : Pressed CD
Ripper mode : XLD Secure Ripper
Disable audio cache : OK for the drive with a cache less than 1375KiB
Make use of C2 pointers : NO
Read offset correction : 6
Max retry count : 20
Gap status : Analyzed, Appended
TOC of the extracted CD
Track | Start | Length | Start sector | End sector
---------------------------------------------------------
1 | 00:01:00 | 22:26:03 | 75 | 101027
2 | 22:27:03 | 10:22:49 | 101028 | 147726
3 | 32:49:52 | 22:15:51 | 147727 | 247902
4 | 55:05:28 | 02:14:27 | 247903 | 257979
AccurateRip Summary
Disc not found in AccurateRip DB.
All Tracks
Album gain : -4.30 dB
Peak : 0.970001
Statistics
Read error : 0
Jitter error (maybe fixed) : 0
Retry sector count : 0
Damaged sector count : 0
Track 01
Filename : /Users/anch/Music/FLAC/Frode Gjerstad Trio - 2011 - MIR [FLAC]/01 - MIR.flac
/Users/anch/Music/FLAC/Frode Gjerstad Trio - 2011 - MIR [MP3 320]/01 - MIR.mp3
/Users/anch/Music/FLAC/Frode Gjerstad Trio - 2011 - MIR [MP3 V0]/01 - MIR.mp3
Pre-gap length : 00:03:00
Track gain : -3.54 dB
Peak : 0.940002
CRC32 hash (test run) : 65BECF34
CRC32 hash : 65BECF34
CRC32 hash (skip zero) : A9968179
AccurateRip v1 signature : EC2FC5EC
AccurateRip v2 signature : A018553C
->Track not present in AccurateRip database.
Statistics
Read error : 0
Jitter error (maybe fixed) : 0
Retry sector count : 0
Damaged sector count : 0
Track 02
Filename : /Users/anch/Music/FLAC/Frode Gjerstad Trio - 2011 - MIR [FLAC]/02 - MIR.flac
/Users/anch/Music/FLAC/Frode Gjerstad Trio - 2011 - MIR [MP3 320]/02 - MIR.mp3
/Users/anch/Music/FLAC/Frode Gjerstad Trio - 2011 - MIR [MP3 V0]/02 - MIR.mp3
Pre-gap length : 00:03:00
Track gain : -4.50 dB
Peak : 0.970001
CRC32 hash (test run) : 80762E80
CRC32 hash : 80762E80
CRC32 hash (skip zero) : CEDD1865
AccurateRip v1 signature : 5520DE4C
AccurateRip v2 signature : 15AF2A62
->Track not present in AccurateRip database.
Statistics
Read error : 0
Jitter error (maybe fixed) : 0
Retry sector count : 0
Damaged sector count : 0
Track 03
Filename : /Users/anch/Music/FLAC/Frode Gjerstad Trio - 2011 - MIR [FLAC]/03 - MIR.flac
/Users/anch/Music/FLAC/Frode Gjerstad Trio - 2011 - MIR [MP3 320]/03 - MIR.mp3
/Users/anch/Music/FLAC/Frode Gjerstad Trio - 2011 - MIR [MP3 V0]/03 - MIR.mp3
Pre-gap length : 00:03:00
Track gain : -4.54 dB
Peak : 0.954834
CRC32 hash (test run) : BF9D9B4D
CRC32 hash : BF9D9B4D
CRC32 hash (skip zero) : 18A1587B
AccurateRip v1 signature : 209E8FF7
AccurateRip v2 signature : A3462A23
->Track not present in AccurateRip database.
Statistics
Read error : 0
Jitter error (maybe fixed) : 0
Retry sector count : 0
Damaged sector count : 0
Track 04
Filename : /Users/anch/Music/FLAC/Frode Gjerstad Trio - 2011 - MIR [FLAC]/04 - MIR.flac
/Users/anch/Music/FLAC/Frode Gjerstad Trio - 2011 - MIR [MP3 320]/04 - MIR.mp3
/Users/anch/Music/FLAC/Frode Gjerstad Trio - 2011 - MIR [MP3 V0]/04 - MIR.mp3
Pre-gap length : 00:03:00
Track gain : -7.57 dB
Peak : 0.965851
CRC32 hash (test run) : C2B93B09
CRC32 hash : C2B93B09
CRC32 hash (skip zero) : D380EA75
AccurateRip v1 signature : 1047C013
AccurateRip v2 signature : E94E0D56
->Track not present in AccurateRip database.
Statistics
Read error : 0
Jitter error (maybe fixed) : 0
Retry sector count : 0
Damaged sector count : 0
No errors occurred
End of status report
 
Содержание индексной карты (.CUE)
TITLE "MIR"
PERFORMER "Frode Gjerstad Trio"
REM GENRE "Free Jazz"
REM DATE "2011"
REM DISCID 330D6E04
REM REPLAYGAIN_ALBUM_GAIN -4.30 dB
REM REPLAYGAIN_ALBUM_PEAK 0.970001
FILE "01 - MIR 1.flac" WAVE
TRACK 01 AUDIO
TITLE "MIR 1"
PERFORMER "Frode Gjerstad Trio"
FLAGS DCP
REM REPLAYGAIN_TRACK_GAIN -3.54 dB
REM REPLAYGAIN_TRACK_PEAK 0.940002
INDEX 00 00:00:00
INDEX 01 00:01:00
TRACK 02 AUDIO
TITLE "MIR 2"
PERFORMER "Frode Gjerstad Trio"
FLAGS DCP
REM REPLAYGAIN_TRACK_GAIN -4.50 dB
REM REPLAYGAIN_TRACK_PEAK 0.970001
INDEX 00 22:24:03
FILE "02 - MIR 2.flac" WAVE
INDEX 01 00:00:00
TRACK 03 AUDIO
TITLE "MIR 3"
PERFORMER "Frode Gjerstad Trio"
FLAGS DCP
REM REPLAYGAIN_TRACK_GAIN -4.54 dB
REM REPLAYGAIN_TRACK_PEAK 0.954834
INDEX 00 10:19:49
FILE "03 - MIR 3.flac" WAVE
INDEX 01 00:00:00
TRACK 04 AUDIO
TITLE "MIR 4"
PERFORMER "Frode Gjerstad Trio"
FLAGS DCP
REM REPLAYGAIN_TRACK_GAIN -7.57 dB
REM REPLAYGAIN_TRACK_PEAK 0.965851
INDEX 00 22:12:51
FILE "04 - MIR 4.flac" WAVE
INDEX 01 00:00:00
 
auCDtect Task Manager
-----------------------
DON'T MODIFY THIS FILE
-----------------------
PERFORMER: auCDtect Task Manager, ver. 1.5.1RC6 build 1.5.1.7
Copyright (c) 2008-2010 y-soft. All rights reserved
http://y-soft.org
ANALYZER: auCDtect: CD records authenticity detector, version 0.8.2
Copyright (c) 2004 Oleg Berngardt. All rights reserved.
Copyright (c) 2004 Alexander Djourik. All rights reserved.
FILE: 04 - MIR 4.flac
Size: 12710593 Hash: 670FD39897684F56A6AC9F1E84A9B303 Accuracy: -m0
Conclusion: CDDA 100%
Signature: 769CE714690DCA0CDCEB5336830966A146FEA2BD
FILE: 03 - MIR 3.flac
Size: 138810510 Hash: 32CA6417DC42785D0BAF69D3F401B47D Accuracy: -m0
Conclusion: CDDA 100%
Signature: 9540DEC86E2FDADA98FFC638C1959DE9C4702A80
FILE: 02 - MIR 2.flac
Size: 67281272 Hash: A3F3AA74EDCFB0BF5F3AB8376A308A25 Accuracy: -m0
Conclusion: CDDA 100%
Signature: 4467EFD519C1E945A2AB858E3A7E5694B2240BC3
FILE: 01 - MIR 1.flac
Size: 132815073 Hash: 5D98B20065907FA6270C513D026E6F3F Accuracy: -m0
Conclusion: CDDA 100%
Signature: E7856EC22D85480F5C9D1A4A12C7AC4D68205BCE
... релизы с участием FRODE GJERSTAD на трекере ...
Any questions -> support@pro-jazz.com. По всем вопросам пишите -> support@pro-jazz.com
09:30
120
Нет комментариев. Ваш будет первым!