Вы используете незарегистрированную версию компонента "Вкладки"!

Поиск

(Avant-Garde Jazz / Free Improvisation / Norway) Bobby Bradford, Frode Gjerstad, Paal Nilssen-Love - Dragon - 2012, FLAC (tracks+.cue), lossless

(Avant-Garde Jazz / Free Improvisation / Norway) Bobby Bradford, Frode Gjerstad, Paal Nilssen-Love - Dragon - 2012, FLAC (tracks+.cue), lossless
Треклист:
Bobby Bradford, Frode Gjerstad, Paal Nilssen-Love - Dragon
Жанр: Avant-Garde Jazz / Free Improvisation
Страна-производитель диска: Norway
Год издания: 2012
Издатель (лейбл): PNL Records (private label of Paal Nilssen-Love)
Номер по каталогу: PNL014
Аудиокодек: FLAC (*.flac)
Тип рипа: tracks+.cue
Битрейт аудио: lossless
Продолжительность: 00:44:57
Источник (релизер): what.cd / спасибо 6060842
Наличие сканов в содержимом раздачи: нет
Треклист:
1. Pitaya (11:14)
2. Pogona (07:11)
3. Draco (07:31)
4. Agamidae (07:47)
5. Dracaena (06:35)
6. Komodo Dragon (04:39)
Доп. информация:
Musicians:
Bobby Bradford - cornet
Frode Gjerstad - alto saxophone, clarinet [Bb], bass clarinet
Paal Nilssen-Love - drums, percussion
Recorded live on the 11th of November 2010 at Klub Dragon, Poznan, Poland
Bobby Bradford, Frode Gjerstad, Paal Nilssen-Love - Dragon squidco.com
Bobby Bradford, Frode Gjerstad, Paal Nilssen-Love - Dragon discogs.com
Bobby Bradford from Wikipedia, the free encyclopedia
Frode Gjerstad Official Site
Paal Nilssen-Love Official Site
Paal Nilssen-Love from Wikipedia, the free encyclopedia
 
Лог создания рипа
X Lossless Decoder version 20121027 (142.1)
XLD extraction logfile from 2012-12-19 23:58:45 +0400
Bobby Bradford, Frode Gjerstad, Paal Nilssen-Love / Dragon
Used drive : HL-DT-ST DVDRW GX30N (revision RP09)
Ripper mode : XLD Secure Ripper
Disable audio cache : OK for the drive with a cache less than 1375KiB
Make use of C2 pointers : NO
Read offset correction : 6
Max retry count : 20
Gap status : Analyzed, Appended
TOC of the extracted CD
Track | Start | Length | Start sector | End sector
---------------------------------------------------------
1 | 00:00:00 | 11:17:07 | 0 | 50781
2 | 11:17:07 | 07:14:37 | 50782 | 83368
3 | 18:31:44 | 07:34:33 | 83369 | 117451
4 | 26:06:02 | 07:50:19 | 117452 | 152720
5 | 33:56:21 | 06:37:65 | 152721 | 182560
6 | 40:34:11 | 04:38:46 | 182561 | 203456
AccurateRip Summary
Disc not found in AccurateRip DB.
All Tracks
Album gain : -5.19 dB
Peak : 0.974701
Statistics
Read error : 0
Jitter error (maybe fixed) : 0
Retry sector count : 0
Damaged sector count : 0
Track 01
Filename : /Users/anch/Music/FLAC/Bobby Bradford, Frode Gjerstad, Paal Nilssen-Love - 2012 - Dragon [FLAC]/01 - Pitaya.flac
/Users/anch/Music/FLAC/Bobby Bradford, Frode Gjerstad, Paal Nilssen-Love - 2012 - Dragon [MP3 320]/01 - Pitaya.mp3
/Users/anch/Music/FLAC/Bobby Bradford, Frode Gjerstad, Paal Nilssen-Love - 2012 - Dragon [MP3 V0]/01 - Pitaya.mp3
Pre-gap length : 00:02:00
Track gain : -6.75 dB
Peak : 0.959839
CRC32 hash (test run) : 9827E768
CRC32 hash : 9827E768
CRC32 hash (skip zero) : 81287EE8
AccurateRip v1 signature : 8403D347
AccurateRip v2 signature : CE28FAB0
->Track not present in AccurateRip database.
Statistics
Read error : 0
Jitter error (maybe fixed) : 0
Retry sector count : 0
Damaged sector count : 0
Track 02
Filename : /Users/anch/Music/FLAC/Bobby Bradford, Frode Gjerstad, Paal Nilssen-Love - 2012 - Dragon [FLAC]/02 - Pogona.flac
/Users/anch/Music/FLAC/Bobby Bradford, Frode Gjerstad, Paal Nilssen-Love - 2012 - Dragon [MP3 320]/02 - Pogona.mp3
/Users/anch/Music/FLAC/Bobby Bradford, Frode Gjerstad, Paal Nilssen-Love - 2012 - Dragon [MP3 V0]/02 - Pogona.mp3
Pre-gap length : 00:03:00
Track gain : -4.82 dB
Peak : 0.935333
CRC32 hash (test run) : 4242107E
CRC32 hash : 4242107E
CRC32 hash (skip zero) : E72FAC34
AccurateRip v1 signature : F743DAAF
AccurateRip v2 signature : 5AEB6959
->Track not present in AccurateRip database.
Statistics
Read error : 0
Jitter error (maybe fixed) : 0
Retry sector count : 0
Damaged sector count : 0
Track 03
Filename : /Users/anch/Music/FLAC/Bobby Bradford, Frode Gjerstad, Paal Nilssen-Love - 2012 - Dragon [FLAC]/03 - Draco.flac
/Users/anch/Music/FLAC/Bobby Bradford, Frode Gjerstad, Paal Nilssen-Love - 2012 - Dragon [MP3 320]/03 - Draco.mp3
/Users/anch/Music/FLAC/Bobby Bradford, Frode Gjerstad, Paal Nilssen-Love - 2012 - Dragon [MP3 V0]/03 - Draco.mp3
Pre-gap length : 00:03:00
Track gain : -1.48 dB
Peak : 0.949524
CRC32 hash (test run) : 19DBB574
CRC32 hash : 19DBB574
CRC32 hash (skip zero) : 42E1738C
AccurateRip v1 signature : 599F8614
AccurateRip v2 signature : 5001263F
->Track not present in AccurateRip database.
Statistics
Read error : 0
Jitter error (maybe fixed) : 0
Retry sector count : 0
Damaged sector count : 0
Track 04
Filename : /Users/anch/Music/FLAC/Bobby Bradford, Frode Gjerstad, Paal Nilssen-Love - 2012 - Dragon [FLAC]/04 - Agamidae.flac
/Users/anch/Music/FLAC/Bobby Bradford, Frode Gjerstad, Paal Nilssen-Love - 2012 - Dragon [MP3 320]/04 - Agamidae.mp3
/Users/anch/Music/FLAC/Bobby Bradford, Frode Gjerstad, Paal Nilssen-Love - 2012 - Dragon [MP3 V0]/04 - Agamidae.mp3
Pre-gap length : 00:03:00
Track gain : -7.21 dB
Peak : 0.974701
CRC32 hash (test run) : 9763C29E
CRC32 hash : 9763C29E
CRC32 hash (skip zero) : 41616922
AccurateRip v1 signature : 0F706732
AccurateRip v2 signature : 16E25699
->Track not present in AccurateRip database.
Statistics
Read error : 0
Jitter error (maybe fixed) : 0
Retry sector count : 0
Damaged sector count : 0
Track 05
Filename : /Users/anch/Music/FLAC/Bobby Bradford, Frode Gjerstad, Paal Nilssen-Love - 2012 - Dragon [FLAC]/05 - Dracaena.flac
/Users/anch/Music/FLAC/Bobby Bradford, Frode Gjerstad, Paal Nilssen-Love - 2012 - Dragon [MP3 320]/05 - Dracaena.mp3
/Users/anch/Music/FLAC/Bobby Bradford, Frode Gjerstad, Paal Nilssen-Love - 2012 - Dragon [MP3 V0]/05 - Dracaena.mp3
Pre-gap length : 00:03:00
Track gain : -1.90 dB
Peak : 0.928955
CRC32 hash (test run) : 7D12F3DD
CRC32 hash : 7D12F3DD
CRC32 hash (skip zero) : EF356884
AccurateRip v1 signature : 0ADCD98B
AccurateRip v2 signature : E7488150
->Track not present in AccurateRip database.
Statistics
Read error : 0
Jitter error (maybe fixed) : 0
Retry sector count : 0
Damaged sector count : 0
Track 06
Filename : /Users/anch/Music/FLAC/Bobby Bradford, Frode Gjerstad, Paal Nilssen-Love - 2012 - Dragon [FLAC]/06 - Komodo Dragon.flac
/Users/anch/Music/FLAC/Bobby Bradford, Frode Gjerstad, Paal Nilssen-Love - 2012 - Dragon [MP3 320]/06 - Komodo Dragon.mp3
/Users/anch/Music/FLAC/Bobby Bradford, Frode Gjerstad, Paal Nilssen-Love - 2012 - Dragon [MP3 V0]/06 - Komodo Dragon.mp3
Pre-gap length : 00:03:00
Track gain : -1.13 dB
Peak : 0.931335
CRC32 hash (test run) : 8F9A9E64
CRC32 hash : 8F9A9E64
CRC32 hash (skip zero) : BB39A5FA
AccurateRip v1 signature : 110A36BF
AccurateRip v2 signature : 6366EAFC
->Track not present in AccurateRip database.
Statistics
Read error : 0
Jitter error (maybe fixed) : 0
Retry sector count : 0
Damaged sector count : 0
No errors occurred
End of status report
 
Содержание индексной карты (.CUE)
TITLE "Dragon"
PERFORMER "Bobby Bradford, Frode Gjerstad, Paal Nilssen-Love"
REM GENRE "Free Jazz"
REM DATE "2012"
REM DISCID 4E0A9806
REM REPLAYGAIN_ALBUM_GAIN -5.19 dB
REM REPLAYGAIN_ALBUM_PEAK 0.974701
FILE "01 - Pitaya.flac" WAVE
TRACK 01 AUDIO
TITLE "Pitaya"
REM REPLAYGAIN_TRACK_GAIN -6.75 dB
REM REPLAYGAIN_TRACK_PEAK 0.959839
INDEX 01 00:00:00
TRACK 02 AUDIO
TITLE "Pogona"
REM REPLAYGAIN_TRACK_GAIN -4.82 dB
REM REPLAYGAIN_TRACK_PEAK 0.935333
INDEX 00 11:14:07
FILE "02 - Pogona.flac" WAVE
INDEX 01 00:00:00
TRACK 03 AUDIO
TITLE "Draco"
REM REPLAYGAIN_TRACK_GAIN -1.48 dB
REM REPLAYGAIN_TRACK_PEAK 0.949524
INDEX 00 07:11:37
FILE "03 - Draco.flac" WAVE
INDEX 01 00:00:00
TRACK 04 AUDIO
TITLE "Agamidae"
REM REPLAYGAIN_TRACK_GAIN -7.21 dB
REM REPLAYGAIN_TRACK_PEAK 0.974701
INDEX 00 07:31:33
FILE "04 - Agamidae.flac" WAVE
INDEX 01 00:00:00
TRACK 05 AUDIO
TITLE "Dracaena"
REM REPLAYGAIN_TRACK_GAIN -1.90 dB
REM REPLAYGAIN_TRACK_PEAK 0.928955
INDEX 00 07:47:19
FILE "05 - Dracaena.flac" WAVE
INDEX 01 00:00:00
TRACK 06 AUDIO
TITLE "Komodo Dragon"
REM REPLAYGAIN_TRACK_GAIN -1.13 dB
REM REPLAYGAIN_TRACK_PEAK 0.931335
INDEX 00 06:34:65
FILE "06 - Komodo Dragon.flac" WAVE
INDEX 01 00:00:00
 
auCDtect Task Manager
-----------------------
DON'T MODIFY THIS FILE
-----------------------
PERFORMER: auCDtect Task Manager, ver. 1.5.1RC6 build 1.5.1.7
Copyright (c) 2008-2010 y-soft. All rights reserved
http://y-soft.org
ANALYZER: auCDtect: CD records authenticity detector, version 0.8.2
Copyright (c) 2004 Oleg Berngardt. All rights reserved.
Copyright (c) 2004 Alexander Djourik. All rights reserved.
FILE: 06 - Komodo Dragon.flac
Size: 28270649 Hash: DABD6BB52D85BD8AB971D8094D5CEEB5 Accuracy: -m0
Conclusion: CDDA 100%
Signature: 3DE24562110C698900D368D82057BF6335C6A088
FILE: 05 - Dracaena.flac
Size: 37100079 Hash: ECD62DD323742B93E72271B0DAC47699 Accuracy: -m0
Conclusion: CDDA 100%
Signature: 587B4A2DCE6C2487CCCE1B7996FCF5C00BE01F81
FILE: 04 - Agamidae.flac
Size: 50813815 Hash: 9F3529E191B75A78AE14531CC549CF63 Accuracy: -m0
Conclusion: CDDA 100%
Signature: 154361D96C60DF7C5F5A84BFD22D95EA3E9F65E5
FILE: 03 - Draco.flac
Size: 38578891 Hash: 95B6517FB7499108173BEB17CF0BD81C Accuracy: -m0
Conclusion: CDDA 100%
Signature: D7A8F5678D33F9C440FA8897405940B23ECFB541
FILE: 02 - Pogona.flac
Size: 40055607 Hash: 48B769F55A2D7BB49FCF045B9EDBF981 Accuracy: -m0
Conclusion: CDDA 100%
Signature: 59631FC34A1E71922CF639C1848E31CB4F7E7D03
FILE: 01 - Pitaya.flac
Size: 68446410 Hash: 7D3F329C5F6FFBAE6EA174B9F635587C Accuracy: -m0
Conclusion: CDDA 100%
Signature: 17B1479C689DBDFD9A6EFA1A33319855D3C798B5
... релизы с участием FRODE GJERSTAD на трекере ...
Any questions -> support@pro-jazz.com. По всем вопросам пишите -> support@pro-jazz.com
07:27
158
Нет комментариев. Ваш будет первым!