Вы используете незарегистрированную версию компонента "Вкладки"!

Поиск

(Avant-Garde Jazz, Free Improvisation) Mount Everest Trio - Waves from Albert Ayler - 1977, APE (image+.cue), lossless

(Avant-Garde Jazz, Free Improvisation) Mount Everest Trio - Waves from Albert Ayler - 1977, APE (image+.cue), lossless
Треклист:
•Mount Everest Trio - Waves from Albert Ayler•
Жанр: Avant-Garde Jazz, Free Improvisation
Год издания: 1977
Издатель (лейбл): Unheard Music
Номер по каталогу: UMS / ALP 202CD
Аудиокодек: APE (*.ape)
Тип рипа: image+.cue
Битрейт аудио: lossless
Продолжительность: 01:00:23
Источник (релизер): barin99
Наличие сканов в содержимом раздачи: да
Треклист:
01.Spirits [04:26]
02.Ramblin' [05:53]
03.Orinoco [07:05]
04.Bananas Oas [04:13]
05.No Hip Shit [07:26]
06.Elf [03:15]
07.Eritrea Libre [03:46]
08.People's Dance [06:55]
09.101 W. 80th Street [06:25]
10.Consolation [05:29]
11.Ode to Albert Ayler [05:25]
Personnel:
Gilbert Holmstrom — as, ts
Kjell Jansson — b
Conny Sjokvist — dr
 
Лог создания рипа
Exact Audio Copy V1.0 beta 1 from 15. November 2010
EAC extraction logfile from 12. July 2012, 21:57
Mount Everest Trio / Waves from Albert Ayler
Used drive : TSSTcorpDVD+-RW TS-L532B Adapter: 1 ID: 0
Read mode : Secure
Utilize accurate stream : Yes
Defeat audio cache : Yes
Make use of C2 pointers : No
Read offset correction : 704
Overread into Lead-In and Lead-Out : No
Fill up missing offset samples with silence : Yes
Delete leading and trailing silent blocks : No
Null samples used in CRC calculations : Yes
Used interface : Native Win32 interface for Win NT & 2000
Used output format : Internal WAV Routines
Sample format : 44.100 Hz; 16 Bit; Stereo
TOC of the extracted CD
Track | Start | Length | Start sector | End sector
---------------------------------------------------------
1 | 0:00.00 | 4:26.05 | 0 | 19954
2 | 4:26.05 | 5:54.00 | 19955 | 46504
3 | 10:20.05 | 7:05.52 | 46505 | 78431
4 | 17:25.57 | 4:13.25 | 78432 | 97431
5 | 21:39.07 | 7:26.73 | 97432 | 130954
6 | 29:06.05 | 3:15.20 | 130955 | 145599
7 | 32:21.25 | 3:46.15 | 145600 | 162564
8 | 36:07.40 | 6:55.02 | 162565 | 193691
9 | 43:02.42 | 6:25.45 | 193692 | 222611
10 | 49:28.12 | 5:29.63 | 222612 | 247349
11 | 54:58.00 | 5:25.35 | 247350 | 271759
Range status and errors
Selected range
Filename C:\Documents and Settings\VB\My Documents\BARIN99\40\Mount Everest Trio - Waves from Albert Ayler\Mount Everest Trio - Waves from Albert Ayler.wav
Peak level 99.4 %
Extraction speed 0.2 X
Range quality 100.0 %
Copy CRC 4353F3C8
Copy OK
No errors occurred
AccurateRip summary
Track 1 not present in database
Track 2 not present in database
Track 3 not present in database
Track 4 not present in database
Track 5 not present in database
Track 6 not present in database
Track 7 not present in database
Track 8 not present in database
Track 9 not present in database
Track 10 not present in database
Track 11 not present in database
None of the tracks are present in the AccurateRip database
End of status report
 
Содержание индексной карты (.CUE)
REM GENRE Jazz
REM DISCID 8F0E270B
REM COMMENT "ExactAudioCopy v1.0b1"
PERFORMER "Mount Everest Trio"
TITLE "Waves from Albert Ayler"
FILE "Mount Everest Trio - Waves from Albert Ayler.wav" WAVE
TRACK 01 AUDIO
TITLE "Spirits"
PERFORMER "Mount Everest Trio"
INDEX 01 00:00:00
TRACK 02 AUDIO
TITLE "Ramblin'"
PERFORMER "Mount Everest Trio"
INDEX 01 04:26:05
TRACK 03 AUDIO
TITLE "Orinoco"
PERFORMER "Mount Everest Trio"
INDEX 01 10:20:05
TRACK 04 AUDIO
TITLE "Bananas Oas"
PERFORMER "Mount Everest Trio"
INDEX 01 17:25:57
TRACK 05 AUDIO
TITLE "No Hip Shit"
PERFORMER "Mount Everest Trio"
INDEX 01 21:39:07
TRACK 06 AUDIO
TITLE "Elf"
PERFORMER "Mount Everest Trio"
INDEX 01 29:06:05
TRACK 07 AUDIO
TITLE "Eritrea Libre"
PERFORMER "Mount Everest Trio"
INDEX 01 32:21:25
TRACK 08 AUDIO
TITLE "People's Dance"
PERFORMER "Mount Everest Trio"
INDEX 01 36:07:40
TRACK 09 AUDIO
TITLE "101 W. 80th Street"
PERFORMER "Mount Everest Trio"
INDEX 01 43:02:42
TRACK 10 AUDIO
TITLE "Consolation"
PERFORMER "Mount Everest Trio"
INDEX 01 49:28:12
TRACK 11 AUDIO
TITLE "Ode to Albert Ayler"
PERFORMER "Mount Everest Trio"
INDEX 01 54:58:00
Any questions - support@pro-jazz.com. Есть вопросы - support@pro-jazz.com
02:47
245
Нет комментариев. Ваш будет первым!